Ссылка на приватное зеркало всего за 1$. Внимание количество ограничено!!!

OK

1+1

iTunes

мы

OK

1

WEB-DLRip

Джокер

Пифагор

Ведьмак / The Witcher сериал

Лицензия

ПШазам

ОК

Оно 2

iTunes

30
pack

Вам бонус

ВАЖНО

!!Акция!!

Alien_RageХит недели

RePack

Resident Evil 21

ИГРА 18+

pack

RePack

jed

!!Акция!!

Alien_Rage

RePack

fifa19

RePack

Assassins Creed: Odyssey

RePack

NEED FOR SPEED™ PAYBACK

4 сезон

9 сезон

Бесстыжие 9 сезон

Все сериалы

все сериалы на PB.wtf

RePack

FAR CRY 5
  

Василиса Микулишна (Роман Давыдов) [1975 г., Мультфильм, былина, DVDRip-AVC] pb.wtf

Василиса Микулишна через торрент pb.wtf

Размер: 296 MB | Добавлен: 8 мес. назад | Торрент скачан:6 раз
Скачать  

05-05-2019 16:11 Василиса Микулишна Скачать торрент  

Василиса Микулишна
Год выпуска: 1975
Страна: СССР
Жанр: Мультфильм, былина
Продолжительность: 00:17:40

Режиссер: Роман Давыдов

Роли озвучивали: Владимир Басов (Князь Киевский), Анатолий Васильев (Ставр Годинович), Анна Каменкова (Василиса Микулишна).

Описание: По мотивам русских былин.
Один черниговский купец – Ставp – пpишёл как-то в Киев получать долг с князя Владимиpа. Князю платить не хотелось, и он вынудил купца высказать оскорбительные слова, после чего обиделся и заточил его в тюpьму. Больше всего князю не понpавилась идея, что он глупее жены Ставpа, и он велел пpивезти её в Киев.

Качество: DVDRip-AVC
Формат: MKV
Видео кодек: AVC
Аудио кодек: AC3
Видео: AVC, 678x572@724x572 , 25.0fps, 2108 Kbps
Аудио#1: AC3 , 2 ch , 48 kHz , 192 kbps
скриншот   скриншот   скриншот   скриншот  
Общее
Уникальный идентификатор : 245725656954527986049210087778645688991 (0xB8DD0A42E6199AB982021C443737C29F)
Полное имя : D:Василиса Микулишна_1975-DVDRip-AVC_.mkv
Формат : Matroska
Версия формата : Version 2
Размер файла : 296 Мбайт
Продолжительность : 17 м.
Общий поток : 2347 Кбит/сек
Название фильма : Василиса Микулишна_1975-DVDRip-AVC_KORSAR
Дата кодирования : UTC 2019-02-08 17:23:27
Программа кодирования : mkvmerge v5.8.0 ('No Sleep / Pillow') built on Sep 2 2012 15:37:04
Библиотека кодирования : libebml v1.2.3 + libmatroska v1.3.0

Видео
Идентификатор : 1
Формат : AVC
Формат/Информация : Advanced Video Codec
Профиль формата : High@L4.1
Параметр CABAC формата : Да
Параметр ReFrames формата : 16 кадров
Идентификатор кодека : V_MPEG4/ISO/AVC
Продолжительность : 17 м.
Битрейт : 2108 Кбит/сек
Ширина : 678 пикселей
Высота : 572 пикселя
Соотношение сторон : 5:4
Соотношение сторон в оригинале : 5:4
Режим частоты кадров : Постоянный
Частота кадров : 25,000 кадров/сек
Цветовое пространство : YUV
Субдискретизация насыщенности : 4:2:0
Битовая глубина : 8 бит
Тип развёртки : Прогрессивная
Бит/(Пиксели*Кадры) : 0.217
Размер потока : 266 Мбайт (90%)
Библиотека кодирования : x264 core 152 r2851kMod ba24899
Настройки программы : cabac=1 / ref=16 / deblock=1:-2:-1 / analyse=0x3:0x133 / me=umh / subme=10 / psy=1 / fade_compensate=0.00 / psy_rd=1.05:0.10 / mixed_ref=1 / me_range=40 / chroma_me=1 / trellis=2 / 8x8dct=1 / cqm=0 / deadzone=21,11 / fast_pskip=1 / chroma_qp_offset=-3 / threads=12 / lookahead_threads=2 / sliced_threads=0 / nr=0 / decimate=1 / interlaced=0 / bluray_compat=0 / constrained_intra=0 / bframes=9 / b_pyramid=2 / b_adapt=2 / b_bias=0 / direct=1 / weightb=1 / open_gop=0 / weightp=2 / keyint=250 / keyint_min=25 / scenecut=40 / intra_refresh=0 / rc=crf / mbtree=0 / crf=17.6000 / qcomp=0.63 / qpmin=0 / qpmax=39 / qpstep=4 / ip_ratio=1.40 / pb_ratio=1.30 / aq=1:0.90
Язык : English
Default : Да
Forced : Нет
Основные цвета : BT.601 PAL
Характеристики трансфера : BT.470 System B, BT.470 System G
Коэффициенты матрицы : BT.601

Аудио
Идентификатор : 2
Формат : AC-3
Формат/Информация : Audio Coding 3
Расширение режима : CM (complete main)
Параметр Endianness формата : Big
Идентификатор кодека : A_AC3
Продолжительность : 17 м.
Вид битрейта : Постоянный
Битрейт : 192 Кбит/сек
Каналы : 2 канала
Расположение каналов : Front: L R
Частота : 48,0 КГц
Битовая глубина : 16 бит
Метод сжатия : С потерями
Размер потока : 24,3 Мбайт (8%)
Язык : Russian
Default : Да
Forced : Нет
pb.wtf



Скачать Василиса Микулишна через торрент http://pic1.kartinco.top/images/12/ifg7e.jpg Скачать фильм Василиса Микулишна через торрент бесплантно в хорошем качестве Описание: По мотивам русских былин.Один черниговский купец – Ставp – пpишёл как-то в Киев получать долг с князя Владимиpа. Князю платить не ... 10 10 1
Info! Золотая раздача, скачанное не засчитывается.
Торрент: Зарегистрирован [2019-05-05 16:11] · скачан: 6 раз
Статус: √ проверено
Размер: 296 MB
Как cкачать? Как скачать Василиса Микулишна через торрент | qTorrent

28-11-2019 20:33  

Отключить всю рекламу на сайте

    Дорогой пользователь! Огромная просьба, поблагодарите релизера, оцените раздачу и оставьте свои комментарий, если Вы скачали Василиса Микулишна через торрент бесплатно! Внесите свою лепту в развитие PiratBit!
    Комментировать посты могут только пользователи прошедшие не сложную регистрацию
    Показать сообщения:    

    Василиса Микулишна через торрент
    Скачать бесплатно Василиса Микулишна
    Василиса Микулишна скачать торрент
    Василиса Микулишна смотреть онлайн
    Cкачать фильм Василиса Микулишна бесплатно
    Василиса Микулишна скачать торрент в хорошем качестве
    Василиса Микулишна смотреть онлайн бесплатно в хорошем качестве


    Вы не можете начинать темы
    Вы не можете отвечать на сообщения
    Вы не можете редактировать свои сообщения
    Вы не можете удалять свои сообщения
    Вы не можете голосовать в опросах
    Вы не можете прикреплять файлы к сообщениям
    Вы можете скачивать файлы