новый адрес
Ссылка на приватное зеркало всего за 1$. Внимание количество ограничено!!!

iTunes

1+1

iTunes

мы

WEB-DL

1

iTunes

Чернобыль

iTunes

Ральф против интернета

Лицензия

ПШазам

Лицензия

Оно 2

Лицензия

30
pack

Вам бонус

ВАЖНО

!!Акция!!

Alien_RageХит недели

RePack

Resident Evil 21

ИГРА 18+

pack

RePack

jed

!!Акция!!

Alien_Rage

RePack

fifa19

RePack

Assassins Creed: Odyssey

RePack

NEED FOR SPEED™ PAYBACK

3 сезон

9 сезон

Бесстыжие 9 сезон

Все сериалы

все сериалы на PB.wtf

RePack

FAR CRY 5
Ребята, катастрофически не хватает 1900р. для оплаты серверов за Октябрь (всвязи с блокировками трафик упал в 3 раза), 1-2р., выручайте.
  

Влacть / Viсе (Адам МакКей) [2018 г., драма, комедия, биография, история, HDRip, Дубляж "iTunes"] pb.wtf

Влacть через торрент pb.wtf

Раздают: 1 [ 0 KB/s ]
Размер: 795 MB | Добавлен: 7 мес. назад | Торрент скачан:126 раз
Скачать  

05-05-2019 18:28 Влacть Скачать торрент  

Влacть / Viсе
Год выпуска: 2018
Страна: США / Annapurna Pictures, Gary Sanchez Productions, Plan B Entertainment
Жанр: драма, комедия, биография, история
Продолжительность: 02:12:26
Перевод: Дубляж (iTunes)

Режиссер: Адам МакКей

rating

В ролях: Кристиан Бэйл, Эми Адамс, Стив Карелл, Сэм Рокуэлл, Элисон Пилл, Эдди Марсан, Джастин Кирк, Лиза Гэй Хэмилтон, Джесси Племонс, Билл Кэмп, Дон МакМанус, Лили Рэйб, Шей Уигэм, Стивен Эдли Гуиргис, Камилль Джеймс Харман, Джиллиан Арменанте, Мэттью Джейкобс

Описание: Когда миром управляют деньги и связи, один человек может получить безграничное влияние. Уникальный дар убеждения, незаурядный ум и доступ на самые высокие уровни власти позволили ему стать кукловодом среди сильных мира сего. Оставаясь теневым игроком, он навсегда изменил ход истории…

Качество: HDRip
Формат: AVI
Видео кодек: XviD
Аудио кодек: MP3
Видео: 640x272 (2.35:1), 23.976 fps, XviD build 50 ~702 kbps avg, 0.17 bit/pixel
Аудио: 48 kHz, MPEG Layer 3, 2 ch, ~128.00 kbps avg
скриншот   скриншот   скриншот   скриншот  

Общее
Полное имя : F:\ФИЛЬМЫ\Влacть.2018.HDRip.avi
Формат : AVI
Формат/Информация : Audio Video Interleave
Размер файла : 795 Мбайт
Продолжительность : 2 ч. 12 м.
Общий поток : 839 Кбит/сек
Программа кодирования : VirtualDubMod 1.5.10.3 | www.virtualdub-fr.org || (build 2550/release)
Библиотека кодирования : VirtualDubMod build 2550/release

Видео
Идентификатор : 0
Формат : MPEG-4 Visual
Профиль формата : Advanced Simple@L5
Настройки формата : BVOP3 / GMC3 / QPel
Параметр BVOP формата : 3
Параметр QPel формата : Да
Параметр GMC формата : 3 точки перехода
Параметр матрицы формата : Default (MPEG)
Идентификатор кодека : XVID
Идентификатор кодека/Подсказка : XviD
Продолжительность : 2 ч. 12 м.
Битрейт : 702 Кбит/сек
Ширина : 640 пикселей
Высота : 272 пикселя
Соотношение сторон : 2,35:1
Частота кадров : 23,976 (24000/1001) кадра/сек
Цветовое пространство : YUV
Субдискретизация насыщенности : 4:2:0
Битовая глубина : 8 бит
Тип развёртки : Прогрессивная
Метод сжатия : С потерями
Бит/(Пиксели*Кадры) : 0.168
Размер потока : 665 Мбайт (84%)
Библиотека кодирования : XviD 1.2.1 (UTC 2008-12-04)

Аудио
Идентификатор : 1
Формат : MPEG Audio
Версия формата : Version 1
Профиль формата : Layer 3
Настройки формата : Joint stereo
Идентификатор кодека : 55
Идентификатор кодека/Подсказка : MP3
Продолжительность : 2 ч. 12 м.
Вид битрейта : Постоянный
Битрейт : 128 Кбит/сек
Каналы : 2 канала
Частота : 48,0 КГц
Частота кадров : 41,667 кадра/сек (1152 SPF)
Метод сжатия : С потерями
Размер потока : 121 Мбайт (15%)
Выравнивание : Соединение по промежуткам
Продолжительность промежутка : 42 мс. (1,00 видеокадр)
Время предзагрузки промежутка : 504 мс.
Библиотека кодирования : LAME3.99r
Настройки программы : -m j -V 4 -q 2 -lowpass 17 -b 128

pb.wtf



Скачать Влacть через торрент http://pic1.kartinco.top/images/12/p84lb.jpg Скачать фильм Влacть через торрент бесплантно в хорошем качестве Описание: Когда миром управляют деньги и связи, один человек может получить безграничное влияние. Уникальный дар убеждения, незаурядный ум ... 10 10 2
Торрент: Зарегистрирован [2019-05-05 18:28] · скачан: 126 раз
Статус: √ проверено
Размер: 795 MB
Как cкачать? Как скачать Влacть через торрент | qTorrent

28-11-2019 20:33  

Отключить всю рекламу на сайте

06-05-2019 15:36 Влacть Скачать торрент  

Лучше картинка будет?pb.wtf



    Дорогой пользователь! Огромная просьба, поблагодарите релизера, оцените раздачу и оставьте свои комментарий, если Вы скачали Влacть через торрент бесплатно! Внесите свою лепту в развитие PiratBit!
    Комментировать посты могут только пользователи прошедшие не сложную регистрацию
    Показать сообщения:    

    Влacть через торрент
    Скачать бесплатно Влacть
    Влacть скачать торрент
    Влacть смотреть онлайн
    Cкачать фильм Влacть бесплатно
    Влacть скачать торрент в хорошем качестве
    Влacть смотреть онлайн бесплатно в хорошем качестве


    Вы не можете начинать темы
    Вы не можете отвечать на сообщения
    Вы не можете редактировать свои сообщения
    Вы не можете удалять свои сообщения
    Вы не можете голосовать в опросах
    Вы не можете прикреплять файлы к сообщениям
    Вы можете скачивать файлы