новый адрес
Мега распродажа FORZA HORIZON 4 ULTIMATE+ВСЕ DLC+ОНЛАЙН всего за 499р. 349 руб. (супер цена). Внимание количество ограничено!!!

iTunes

1+1

iTunes

мы

iTunes

1

iTunes

Чернобыль

iTunes

Ральф против интернета

Лицензия

ПШазам

Лицензия

Игра престолов

Лицензия

30
pack

ВАЖНО

!!Акция!!

Alien_RageХит недели

RePack

Resident Evil 21

ИГРА 18+

pack

RePack

Metro:Exodus

!!Акция!!

Alien_Rage

RePack

fifa19

RePack

Assassins Creed: Odyssey

RePack

NEED FOR SPEED™ PAYBACK

3 сезон

9 сезон

Бесстыжие 9 сезон

Все сериалы

все сериалы на PB.wtf

RePack

FAR CRY 5
Ребята, катастрофически не хватает 1900р. для оплаты серверов за Октябрь (всвязи с блокировками трафик упал в 3 раза), 1-2р., выручайте.
  

Затерянный в Сибири (Александр Митта) [1991 г., Драма, DVDRip-AVC] pb.wtf

Затерянный в Сибири через торрент pb.wtf

Раздают: 2 [ 0 KB/s ]
Размер: 2.3 GB | Добавлен: 6 мес. назад | Торрент скачан:54 раза
Скачать  

06-05-2019 15:28 Затерянный в Сибири Скачать торрент  

Затерянный в Сибири
Год выпуска: 1991
Страна: СССР, Великобритания
Жанр: Драма
Продолжительность: 01:47:50
Субтитры: Отсутствуют

Режиссер: Александр Митта



В ролях: Энтони Эндрюс, Елена Майорова, Владимир Ильин, Евгений Миронов, Наталья Гундарева, Гарик Сукачев, Алексей Жарков, Валентин Гафт, Любовь Соколова, Альберт Филозов, Зиновий Гердт, Михаил Жигалов, Николай Пастухов, Иван Бортник, Михаил Бочаров, Петр Зайченко, Вячеслав Горбунчиков, Игорь Сукачев, Юрий Соколов, Олег Ли, Леонид Тимцуник, Юрий Веялис, Харк Бом, Владимир Прозоров

Описание: Английского археолога Миллера, работавшего на раскопках в Иране, выкрали советские чекисты, по ошибке приняв за американского шпиона. После допросов на Лубянке ученый «сознался» в том, что работает не только на американскую, но и на английскую, а также на японскую разведки. Попав в ГУЛАГ, англичанин проходит через все круги ада. Но именно там ему суждено встретить настоящую любовь...

Качество: DVDRip-AVC
Формат: MKV
Видео кодек: AVC
Аудио кодек: AC3
Видео: AVC, 710x576@758x576 , 25.0fps, 2795 Kbps
Аудио#1: AC3 , 2 ch , 48 kHz , 192 kbps
скриншот   скриншот   скриншот   скриншот  

Общее
Уникальный идентификатор : 188479067759322940831773855559488386480 (0x8DCBBF8020145C08B2EED07EEDE035B0)
Полное имя : D:Затерянный в Сибири_1991-DVDRip-AVC_KORSAR.mkv
Формат : Matroska
Версия формата : Version 2
Размер файла : 2,30 Гбайт
Продолжительность : 1 ч. 47 м.
Общий поток : 3047 Кбит/сек
Название фильма : Затерянный в Сибири_1991-DVDRip-AVC_KORSAR
Дата кодирования : UTC 2019-04-01 07:03:32
Программа кодирования : mkvmerge v5.8.0 ('No Sleep / Pillow') built on Sep 2 2012 15:37:04
Библиотека кодирования : libebml v1.2.3 + libmatroska v1.3.0

Видео
Идентификатор : 1
Формат : AVC
Формат/Информация : Advanced Video Codec
Профиль формата : High@L4.1
Параметр CABAC формата : Да
Параметр ReFrames формата : 14 кадров
Идентификатор кодека : V_MPEG4/ISO/AVC
Продолжительность : 1 ч. 47 м.
Битрейт : 2795 Кбит/сек
Ширина : 710 пикселей
Высота : 576 пикселей
Соотношение сторон : 4:3
Соотношение сторон в оригинале : 4:3
Режим частоты кадров : Постоянный
Частота кадров : 25,000 кадров/сек
Цветовое пространство : YUV
Субдискретизация насыщенности : 4:2:0
Битовая глубина : 8 бит
Тип развёртки : Прогрессивная
Бит/(Пиксели*Кадры) : 0.273
Размер потока : 2,11 Гбайт (92%)
Библиотека кодирования : x264 core 152 r2851kMod ba24899
Настройки программы : cabac=1 / ref=14 / deblock=1:-2:-1 / analyse=0x3:0x133 / me=umh / subme=10 / psy=1 / fade_compensate=0.00 / psy_rd=1.05:0.10 / mixed_ref=1 / me_range=40 / chroma_me=1 / trellis=2 / 8x8dct=1 / cqm=0 / deadzone=21,11 / fast_pskip=1 / chroma_qp_offset=-3 / threads=12 / lookahead_threads=3 / sliced_threads=0 / nr=0 / decimate=1 / interlaced=0 / bluray_compat=0 / constrained_intra=0 / bframes=10 / b_pyramid=2 / b_adapt=2 / b_bias=0 / direct=1 / weightb=1 / open_gop=0 / weightp=2 / keyint=250 / keyint_min=25 / scenecut=40 / intra_refresh=0 / rc=crf / mbtree=0 / crf=18.0000 / qcomp=0.63 / qpmin=0 / qpmax=30 / qpstep=4 / ip_ratio=1.40 / pb_ratio=1.30 / aq=1:1.00
Язык : English
Default : Да
Forced : Нет
Основные цвета : BT.601 PAL
Характеристики трансфера : BT.470 System B, BT.470 System G
Коэффициенты матрицы : BT.601

Аудио
Идентификатор : 2
Формат : AC-3
Формат/Информация : Audio Coding 3
Расширение режима : CM (complete main)
Параметр Endianness формата : Big
Идентификатор кодека : A_AC3
Продолжительность : 1 ч. 47 м.
Вид битрейта : Постоянный
Битрейт : 192 Кбит/сек
Каналы : 2 канала
Расположение каналов : Front: L R
Частота : 48,0 КГц
Битовая глубина : 16 бит
Метод сжатия : С потерями
Размер потока : 148 Мбайт (6%)
Язык : Russian
Default : Да
Forced : Нет

pb.wtf



Скачать Затерянный в Сибири через торрент http://pic1.kartinco.top/images/12/41uy9.jpg Скачать фильм Затерянный в Сибири через торрент бесплантно в хорошем качестве Описание: Английского археолога Миллера, работавшего на раскопках в Иране, выкрали советские чекисты, по ошибке приняв за американского ... 8.4 10 5
Торрент: Зарегистрирован [2019-05-06 15:28] · скачан: 54 раз
Статус: √ проверено
Размер: 2.3 GB
Как cкачать? Как скачать Затерянный в Сибири через торрент | qTorrent


>> Регистрируемся здесь <<






Отзывы и комментарии о схеме читаем и пишем здесь: ---> Отзывы и комментарии о схеме

Новые благодарочки в телеграм довольных пользователей:
скриншот   скриншот   скриншот   скриншот   скриншот

06-05-2019 18:10 Затерянный в Сибири Скачать торрент  

Мерзейший фильм.pb.wtf



    Дорогой пользователь! Огромная просьба, поблагодарите релизера, оцените раздачу и оставьте свои комментарий, если Вы скачали Затерянный в Сибири через торрент бесплатно! Внесите свою лепту в развитие PiratBit!
    Комментировать посты могут только пользователи прошедшие не сложную регистрацию
    Показать сообщения:    

    Затерянный в Сибири через торрент
    Скачать бесплатно Затерянный в Сибири
    Затерянный в Сибири скачать торрент
    Затерянный в Сибири смотреть онлайн
    Cкачать фильм Затерянный в Сибири бесплатно
    Затерянный в Сибири скачать торрент в хорошем качестве
    Затерянный в Сибири смотреть онлайн бесплатно в хорошем качестве


    Вы не можете начинать темы
    Вы не можете отвечать на сообщения
    Вы не можете редактировать свои сообщения
    Вы не можете удалять свои сообщения
    Вы не можете голосовать в опросах
    Вы не можете прикреплять файлы к сообщениям
    Вы можете скачивать файлы