Ссылка на приватное зеркало нашего сайта всего за 1$. Внимание количество ограничено!!!

2 сезон

iTunes

1 сезон

1

2 сезон

2 сезон

iTunes

1 сезон

RePack

30

Новинка

ВАЖНО

ИГРА 18+

pack

RePack

MK11
pack

Забери бонус

RePack

jed

!!Акция!!

Alien_Rage

RePack

fifa19

RePack

Assassins Creed: Odyssey

RePack

NEED FOR SPEED™ PAYBACK

4 сезон

9 сезон

Бесстыжие 9 сезон

Все сериалы

все сериалы на PB.wtf

RePack

FAR CRY 5
  

Красная линия / The Red Line / Сезон: 1 / Серии: 1-8 из 8 (Томас Картер, Мэттью Черри, Шилин Чокси) [2019, Драма, криминал, WEB-DL 1080p] [MVO] (TVShows) pb.wtf

Красная линия через торрент pb.wtf

Размер: 22.61 GB | Добавлен: 1 год 5 мес. назад | Торрент скачан:4 раза
Скачать  

07-05-2019 09:18 Красная линия Скачать торрент  

Красная линия / The Red Line


Год выпуска: 2019
Страна: США
Жанр: Драма, криминал
Продолжительность: ~00:43:00
Перевод: Профессиональный (многоголосый закадровый) | TVShows
Режиссёр: Томас Картер, Мэттью Черри, Шилин Чокси
В ролях: Ноа Уайли, Лаура Фишер, Майкл Патрик Торнтон, Алайя Ройял, Винни Чиббер, Эмаяци Коринеальди, Ховард Чарльз, Ноэль Фишер, Элизабет Лайдлоу, Раммел Чан
Описание: Сюжет расскажет о событиях, произошедших после того, как в Чикаго белый полицейский по случайности убил врача-афроамериканца. Это история о трёх семьях, имеющих отношение к случившейся трагедии, рассказанная от лица каждой из них.


Качество: WEB-DL 1080p
Контейнер: MKV
Видео: MPEG-4 AVC, 1920x1080 (16:9), 23.976 fps, ~3830 Kbps
Аудио 1: 48 kHz, AC3, 6 ch, 384 kbps | TVShows
Аудио 2: 48 kHz, E-AC3, 6 ch, 640 kbps | Original
Субтитры: английские
Реклама: отсутствует
Общее
Уникальный идентификатор : 138858782268499108110667253196440284284 (0x68773A8AD9F8970E4B43B29240892C7C)
Полное имя : D:\Users\01\Downloads\Grace.and.Frankie.S05.1080p.TVShows\Grace.and.Frankie.S05E01.1080p.TVShows.mkv
Формат : Matroska
Версия формата : Version 4
Размер файла : 984 Мбайт
Продолжительность : 28 м. 42 с.
Режим общего битрейта : Переменный
Общий поток : 4793 Кбит/сек
Дата кодирования : UTC 2019-01-27 04:49:23
Программа кодирования : mkvmerge v29.0.0 ('Like It Or Not') 64-bit
Библиотека кодирования : libebml v1.3.6 + libmatroska v1.4.9

Видео
Идентификатор : 1
Формат : AVC
Формат/Информация : Advanced Video Codec
Профиль формата : Main@L4
Настройки формата : CABAC / 3 Ref Frames
Параметр CABAC формата : Да
Параметр RefFrames формата : 3 кадра
Идентификатор кодека : V_MPEG4/ISO/AVC
Продолжительность : 28 м. 42 с.
Вид битрейта : Переменный
Битрейт : 3830 Кбит/сек
Максимальный битрейт : 5745 Кбит/сек
Ширина : 1920 пикселей
Высота : 1080 пикселей
Соотношение сторон : 16:9
Режим частоты кадров : Постоянный
Частота кадров : 23,976 (24000/1001) кадра/сек
Цветовое пространство : YUV
Субдискретизация насыщенности : 4:2:0
Битовая глубина : 8 бит
Тип развёртки : Прогрессивная
Бит/(Пиксели*Кадры) : 0.077
Размер потока : 773 Мбайт (79%)
Библиотека кодирования : x264 core 148 r2715 7e75228
Настройки программы : cabac=1 / ref=3 / deblock=1:0:0 / analyse=0x1:0x111 / me=umh / subme=10 / psy=1 / psy_rd=1.00:0.00 / mixed_ref=1 / me_range=24 / chroma_me=1 / trellis=2 / 8x8dct=0 / cqm=0 / deadzone=21,11 / fast_pskip=1 / chroma_qp_offset=-2 / threads=8 / lookahead_threads=1 / sliced_threads=0 / nr=0 / decimate=1 / interlaced=0 / bluray_compat=0 / stitchable=1 / constrained_intra=0 / bframes=2 / b_pyramid=0 / b_adapt=2 / b_bias=0 / direct=3 / weightb=1 / open_gop=0 / weightp=2 / keyint=48 / keyint_min=25 / scenecut=0 / intra_refresh=0 / rc_lookahead=48 / rc=2pass / mbtree=1 / bitrate=3830 / ratetol=1.0 / qcomp=0.50 / qpmin=6 / qpmax=51 / qpstep=4 / cplxblur=20.0 / qblur=0.5 / vbv_maxrate=5745 / vbv_bufsize=7660 / nal_hrd=vbr / filler=0 / ip_ratio=1.40 / aq=1:1.00
Язык : English
Default : Да
Forced : Нет

Аудио #1
Идентификатор : 2
Формат : AC-3
Формат/Информация : Audio Coding 3
Коммерческое название : Dolby Digital
Идентификатор кодека : A_AC3
Продолжительность : 28 м. 42 с.
Вид битрейта : Постоянный
Битрейт : 384 Кбит/сек
Каналы : 6 каналов
Channel layout : L R C LFE Ls Rs
Частота : 48,0 КГц
Частота кадров : 31,250 кадров/сек (1536 SPF)
Битовая глубина : 16 бит
Метод сжатия : С потерями
Размер потока : 78,8 Мбайт (8%)
Заголовок : TVShows
Язык : Russian
ServiceKind/String : Complete Main
Default : Да
Forced : Да

Аудио #2
Идентификатор : 3
Формат : E-AC-3
Формат/Информация : Enhanced AC-3
Коммерческое название : Dolby Digital Plus
Идентификатор кодека : A_EAC3
Продолжительность : 28 м. 42 с.
Вид битрейта : Постоянный
Битрейт : 640 Кбит/сек
Каналы : 6 каналов
Channel layout : L R C LFE Ls Rs
Частота : 48,0 КГц
Частота кадров : 31,250 кадров/сек (1536 SPF)
Метод сжатия : С потерями
Размер потока : 131 Мбайт (13%)
Заголовок : Original
Язык : English
ServiceKind/String : Complete Main
Default : Нет
Forced : Нет

Текст
Идентификатор : 4
Формат : UTF-8
Идентификатор кодека : S_TEXT/UTF8
Идентификатор кодека/Информация : UTF-8 Plain Text
Продолжительность : 28 м. 6 с.
Битрейт : 93 бит/сек
ElementCount : 583
Размер потока : 19,3 Кбайт (0%)
Заголовок : English
Язык : English
Default : Нет
Forced : Нет
скриншот  скриншот  скриншот  
Когда раздача ведётся путём добавления новых серий, при каждом добавлении создётся новый торрент. Чтобы начать докачку новой серии, пользователям необходимо сделать следующее:
(1) остановить скачивание,
(2) удалить старый торрент у себя из клиента (старые серии удалять не надо),
(3) скачать новый торрент и запустить его у себя в клиенте вместо старого, при этом указать клиенту путь в старую папку, куда и должно происходить скачивание новых серий.
Ваш клиент при этом должен произвести хеширование (проверку) старой папки (если не производит сам - помогите ему сделать это), и будет докачивать только те серии, которых у вас ещё нет. Старые серии при этом не удаляются, а продолжают раздаваться!
Eсли вы уже удалили старые серии, то предотвратить повторную закачку старых серий можно, отжав галочку в соответсвующих местах при запуске нового торрента. По возможности, желательно не удалять старые серии как можно дольше, чтобы релизёр не столько продолжал раздавать старые серии, а смог сконцентрироваться на новых.
pb.wtf



Скачать Красная линия через торрент https://i109.fastpic.ru/big/2019/0507/0b/88467facd2a1c7d0cd9228678d28710b.jpg Скачать фильм Красная линия через торрент бесплантно в хорошем качестве Описание: Сюжет расскажет о событиях, произошедших после того, как в Чикаго белый полицейский по случайности убил врача-афроамериканца. Это ... 3 10 1
Торрент: Зарегистрирован [2019-06-08 11:01] · скачан: 4 раз
Статус: √ проверено
Размер: 22.61 GB
Как cкачать? Как скачать Красная линия через торрент | qTorrent

28-11-2019 20:33  

Отключить всю рекламу на сайте

    Дорогой пользователь! Огромная просьба, поблагодарите релизера, оцените раздачу и оставьте свои комментарий, если Вы скачали Красная линия через торрент бесплатно! Внесите свою лепту в развитие PiratBit!
    Комментировать посты могут только пользователи прошедшие не сложную регистрацию
    Показать сообщения:    

    Красная линия через торрент
    Скачать бесплатно Красная линия
    Красная линия скачать торрент
    Красная линия смотреть онлайн
    Cкачать фильм Красная линия бесплатно
    Красная линия скачать торрент в хорошем качестве
    Красная линия смотреть онлайн бесплатно в хорошем качестве


    Вы не можете начинать темы
    Вы не можете отвечать на сообщения
    Вы не можете редактировать свои сообщения
    Вы не можете удалять свои сообщения
    Вы не можете голосовать в опросах
    Вы не можете прикреплять файлы к сообщениям
    Вы можете скачивать файлы