Ссылка на приватное зеркало всего за 1$. Внимание количество ограничено!!!

iTunes

1+1

iTunes

мы

WEB-DL

1

iTunes

Чернобыль

iTunes

Ральф против интернета

Лицензия

ПШазам

Лицензия

Оно 2

Лицензия

30
pack

Вам бонус

ВАЖНО

!!Акция!!

Alien_RageХит недели

RePack

Resident Evil 21

ИГРА 18+

pack

RePack

jed

!!Акция!!

Alien_Rage

RePack

fifa19

RePack

Assassins Creed: Odyssey

RePack

NEED FOR SPEED™ PAYBACK

3 сезон

9 сезон

Бесстыжие 9 сезон

Все сериалы

все сериалы на PB.wtf

RePack

FAR CRY 5
Ребята, катастрофически не хватает 1900р. для оплаты серверов за Октябрь (всвязи с блокировками трафик упал в 3 раза), 1-2р., выручайте.
  

Закат / Napszállta (Ласло Немеш) [2018, Драма, BDRip-AVC] MVO [iTunes] - ExKinoRay pb.wtf

Закат через торрент pb.wtf

Раздают: 3 [ 0 KB/s ]
Размер: 2.81 GB | Добавлен: 1 мес. 25 д. назад | Торрент скачан:39 раз
Скачать  

07-05-2019 18:56 Закат Скачать торрент  

Название: Закат
Оригинальное название: Napszállta
Год выпуска: 2018
Жанр: Драма
Режиссер: Ласло Немеш
В ролях: Эвелин Добош, Сюзанна Вуэст, Юли Якаб, Бьорн Фрайберг, Влад Иванов, Левенте Молнар, Юдит Бардош, Урс Рехн, Моника Бальшаи

Описание: 1913 год, Будапешт, сердце Европы. Молодая полная решимости Ирис Лейтер приезжает в столицу Венгрии. Она пытается устроиться на работу в качестве модистки в легендарный шляпный магазин, который когда-то принадлежал ее покойным родителям. Новый владелец выгоняет бывшую наследницу, ставшую жертвой жестоких интриг. Ирис отказывается покинуть город и начинает собственное расследование тайн прошлого на темных улицах Будапешта в канун Первой мировой войны.

rating

Выпущено: Венгрия, Франция, Laokoon Filmgroup, Playtime, Hungarian National Film Fund
Продолжительность: 02:16:24
Перевод: Профессиональный (многоголосый, закадровый) | iTunes
Субтитры: Английские, немецкие

БЕЗ КАКОЙ-ЛИБО РЕКЛАМЫ!

Формат: MKV
Качество: BDRip-AVC
Видео: MPEG-4 AVC, 1024x552 (1.85:1), 25.000 fps, 2560 Kbps, 0.181 bit/pixel
Аудио : 48 kHz, AC3, 5.1, 384 Kbps | RUS |
General
Unique ID : 228266683751459139777063747877213655405 (0xABBA906C6A643872A718FF6B3AE5516D)
Complete name : F:\Sunset.2018.BDRip.AVC.ExKinoRay.mkv
Format : Matroska
Format version : Version 2
File size : 2.81 GiB
Duration : 2 h 16 min
Overall bit rate : 2 946 kb/s
Movie name : Sunset 2018 from ExKinoRay
Encoded date : UTC 2019-10-19 13:18:39
Writing application : mkvmerge v5.6.0 ('Kenya Kane') built on May 27 2012 16:44:04
Writing library : libebml v1.2.3 + libmatroska v1.3.0

Video
ID : 1
Format : AVC
Format/Info : Advanced Video Codec
Format profile : High@L4.1
Format settings, CABAC : Yes
Format settings, ReFrames : 12 frames
Codec ID : V_MPEG4/ISO/AVC
Duration : 2 h 16 min
Bit rate : 2 560 kb/s
Width : 1 024 pixels
Height : 552 pixels
Display aspect ratio : 1.85:1
Frame rate mode : Constant
Frame rate : 25.000 FPS
Color space : YUV
Chroma subsampling : 4:2:0
Bit depth : 8 bits
Scan type : Progressive
Bits/(Pixel*Frame) : 0.181
Stream size : 2.38 GiB (85%)
Title : Enigma
Writing library : x264 core 152 r2851 ba24899
Encoding settings : cabac=1 / ref=12 / deblock=1:-2:-2 / analyse=0x3:0x113 / me=umh / subme=10 / psy=1 / psy_rd=0.98:0.05 / mixed_ref=1 / me_range=32 / chroma_me=1 / trellis=2 / 8x8dct=1 / cqm=0 / deadzone=21,11 / fast_pskip=0 / chroma_qp_offset=-3 / threads=12 / lookahead_threads=2 / sliced_threads=0 / nr=0 / decimate=0 / interlaced=0 / bluray_compat=0 / constrained_intra=0 / bframes=9 / b_pyramid=2 / b_adapt=2 / b_bias=0 / direct=3 / weightb=1 / open_gop=0 / weightp=2 / keyint=250 / keyint_min=25 / scenecut=40 / intra_refresh=0 / rc=2pass / mbtree=0 / bitrate=2560 / ratetol=1.0 / qcomp=0.60 / qpmin=0 / qpmax=51 / qpstep=4 / cplxblur=20.0 / qblur=0.5 / ip_ratio=1.40 / pb_ratio=1.30 / aq=2:0.90
Language : English
Default : Yes
Forced : No
Color range : Limited
Color primaries : BT.709
Transfer characteristics : BT.709
Matrix coefficients : BT.709

Audio
ID : 2
Format : AC-3
Format/Info : Audio Coding 3
Mode extension : CM (complete main)
Format settings, Endianness : Big
Codec ID : A_AC3
Duration : 2 h 16 min
Bit rate mode : Constant
Bit rate : 384 kb/s
Channel(s) : 6 channels
Channel positions : Front: L C R, Side: L R, LFE
Sampling rate : 48.0 kHz
Frame rate : 31.250 FPS (1536 spf)
Compression mode : Lossy
Stream size : 375 MiB (13%)
Title : MVO (iTunes)
Language : Russian
Default : Yes
Forced : No

Text #1
ID : 3
Format : UTF-8
Codec ID : S_TEXT/UTF8
Codec ID/Info : UTF-8 Plain Text
Language : English
Default : No
Forced : No

Text #2
ID : 4
Format : UTF-8
Codec ID : S_TEXT/UTF8
Codec ID/Info : UTF-8 Plain Text
Language : German
Default : No
Forced : No

Menu
00:00:00.000 : en:Chapter 1
00:13:33.560 : en:Chapter 2
00:23:40.280 : en:Chapter 3
00:35:24.840 : en:Chapter 4
00:50:16.520 : en:Chapter 5
01:01:29.880 : en:Chapter 6
01:11:39.000 : en:Chapter 7
01:22:46.120 : en:Chapter 8
01:34:27.200 : en:Chapter 9
01:48:07.320 : en:Chapter 10
01:59:05.720 : en:Chapter 11
02:10:53.720 : en:Chapter 12


Релиз от:

Автор релиза: pb.wtf



Скачать Закат через торрент https://d.radikal.ru/d08/1905/fe/04e6ef881bde.jpg Скачать фильм Закат через торрент бесплантно в хорошем качестве Описание: 1913 год, Будапешт, сердце Европы. Молодая полная решимости Ирис Лейтер приезжает в столицу Венгрии. Она пытается устроиться на ... 7.8 10 5
Info! Золотая раздача, скачанное не засчитывается.
Торрент: Зарегистрирован [2019-10-19 14:23] · скачан: 39 раз
Статус: √ проверено
Размер: 2.81 GB
Как cкачать? Как скачать Закат через торрент | qTorrent

% Раздел Тема Автор DL S | L
Фильмы 2018 [DVDrip, WEB-DLRip, HDrip] (DUB, MVO) [ 2.06 GB ] Закат / Napszállta [2018 WEB-DLRip] - ExKinoRay Enigma2010 Скачать
10 | 0

28-11-2019 20:33  

Отключить всю рекламу на сайте

    Дорогой пользователь! Огромная просьба, поблагодарите релизера, оцените раздачу и оставьте свои комментарий, если Вы скачали Закат через торрент бесплатно! Внесите свою лепту в развитие PiratBit!
    Комментировать посты могут только пользователи прошедшие не сложную регистрацию
    Показать сообщения:    

    Закат через торрент
    Скачать бесплатно Закат
    Закат скачать торрент
    Закат смотреть онлайн
    Cкачать фильм Закат бесплатно
    Закат скачать торрент в хорошем качестве
    Закат смотреть онлайн бесплатно в хорошем качестве


    Вы не можете начинать темы
    Вы не можете отвечать на сообщения
    Вы не можете редактировать свои сообщения
    Вы не можете удалять свои сообщения
    Вы не можете голосовать в опросах
    Вы не можете прикреплять файлы к сообщениям
    Вы можете скачивать файлы