Ссылка на приватное зеркало нашего сайта всего за 1$. Внимание количество ограничено!!!

2 сезон

iTunes

1 сезон

1

iTunes

iTunes

iTunes

1 сезон

RePack

30

ИГРА 18+

pack

ВАЖНО

!!Акция!!

Alien_RageХит недели

RePack

MK11
pack

Забери бонус

RePack

jed

!!Акция!!

Alien_Rage

RePack

fifa19

RePack

Assassins Creed: Odyssey

RePack

NEED FOR SPEED™ PAYBACK

4 сезон

9 сезон

Бесстыжие 9 сезон

Все сериалы

все сериалы на PB.wtf

RePack

FAR CRY 5
  

Тайный мир Анны / Ana y Bruno (Карлос Каррера) [2017 г., мультфильм, приключения, WEB-DLRip, Дубляж "iTunes"] pb.wtf

Тайный мир Анны через торрент pb.wtf

Размер: 710 MB | Добавлен: 1 год 5 мес. назад | Торрент скачан:90 раз
Скачать  

09-05-2019 06:57 Тайный мир Анны Скачать торрент  

Тайный мир Анны / Ana y Bruno
Год выпуска: 2017
Страна: Мексика / Anima Estudios, Discreet Arts Productions, Itaca Films
Жанр: мультфильм, приключения
Продолжительность: 01:32:28
Перевод: Дубляж (iTunes)

Режиссер: Карлос Каррера

rating

В ролях: Галья Майер, Дамиан Алькасар, Марина Де Тавира, Эктор Бонилья, Сильверио Паласиос, Маурицио Исаак, Хульета Эгуррола, Карлос Кобос, Рикардо Эскерра, Дэниэл Каррера

Описание: История о необычной девочке Анне, которая живёт в мире фантазий, иллюзий и волшебства. Вместе с новыми чудаковатыми друзьями, которых кроме Анны никто не видит, она отправится в увлекательное путешествие за мечтой…

Качество: WEB-DLRip
Формат: AVI
Видео кодек: XviD
Аудио кодек: MP3
Видео: 640x272 (2.35:1), 25 fps, XviD build 50 ~935 kbps avg, 0.22 bit/pixel
Аудио: 48 kHz, MPEG Layer 3, 2 ch, ~128.00 kbps avg
скриншот   скриншот   скриншот   скриншот  

Общее
Полное имя : F:\ФИЛЬМЫ\Тайный мир Анны.2017.D.WEB-DLRip.avi
Формат : AVI
Формат/Информация : Audio Video Interleave
Размер файла : 710 Мбайт
Продолжительность : 1 ч. 32 м.
Общий поток : 1074 Кбит/сек
Программа кодирования : VirtualDubMod 1.5.10.3 | www.virtualdub-fr.org || (build 2550/release)
Библиотека кодирования : VirtualDubMod build 2550/release

Видео
Идентификатор : 0
Формат : MPEG-4 Visual
Профиль формата : Advanced Simple@L5
Настройки формата : BVOP3 / GMC3 / QPel
Параметр BVOP формата : 3
Параметр QPel формата : Да
Параметр GMC формата : 3 точки перехода
Параметр матрицы формата : Default (MPEG)
Идентификатор кодека : XVID
Идентификатор кодека/Подсказка : XviD
Продолжительность : 1 ч. 32 м.
Битрейт : 936 Кбит/сек
Ширина : 640 пикселей
Высота : 272 пикселя
Соотношение сторон : 2,35:1
Частота кадров : 25,000 кадров/сек
Цветовое пространство : YUV
Субдискретизация насыщенности : 4:2:0
Битовая глубина : 8 бит
Тип развёртки : Прогрессивная
Метод сжатия : С потерями
Бит/(Пиксели*Кадры) : 0.215
Размер потока : 619 Мбайт (87%)
Библиотека кодирования : XviD 1.2.1 (UTC 2008-12-04)

Аудио
Идентификатор : 1
Формат : MPEG Audio
Версия формата : Version 1
Профиль формата : Layer 3
Настройки формата : Joint stereo
Идентификатор кодека : 55
Идентификатор кодека/Подсказка : MP3
Продолжительность : 1 ч. 32 м.
Вид битрейта : Постоянный
Битрейт : 128 Кбит/сек
Каналы : 2 канала
Частота : 48,0 КГц
Частота кадров : 41,667 кадра/сек (1152 SPF)
Метод сжатия : С потерями
Размер потока : 84,7 Мбайт (12%)
Выравнивание : Соединение по промежуткам
Продолжительность промежутка : 40 мс. (1,00 видеокадр)
Время предзагрузки промежутка : 504 мс.
Библиотека кодирования : LAME3.99r
Настройки программы : -m j -V 4 -q 2 -lowpass 17 -b 128

pb.wtf



Скачать Тайный мир Анны через торрент http://pic1.kartinco.top/images/12/fkfqo.jpg Скачать фильм Тайный мир Анны через торрент бесплантно в хорошем качестве Описание: История о необычной девочке Анне, которая живёт в мире фантазий, иллюзий и волшебства. Вместе с новыми чудаковатыми друзьями, ... 9 10 2
Торрент: Зарегистрирован [2019-05-09 06:57] · скачан: 90 раз
Статус: √ проверено
Размер: 710 MB
Как cкачать? Как скачать Тайный мир Анны через торрент | qTorrent

% Раздел Тема Автор DL S | L
Иностранные мультфильмы [ 1.46 GB ] Тайный мир Анны / Ana y Bruno [2017 мультфильм WEB-DLRip] killermax2013 Скачать
2 | 0

28-11-2019 20:33  

Отключить всю рекламу на сайте

    Дорогой пользователь! Огромная просьба, поблагодарите релизера, оцените раздачу и оставьте свои комментарий, если Вы скачали Тайный мир Анны через торрент бесплатно! Внесите свою лепту в развитие PiratBit!
    Комментировать посты могут только пользователи прошедшие не сложную регистрацию
    Показать сообщения:    

    Тайный мир Анны через торрент
    Скачать бесплатно Тайный мир Анны
    Тайный мир Анны скачать торрент
    Тайный мир Анны смотреть онлайн
    Cкачать фильм Тайный мир Анны бесплатно
    Тайный мир Анны скачать торрент в хорошем качестве
    Тайный мир Анны смотреть онлайн бесплатно в хорошем качестве


    Вы не можете начинать темы
    Вы не можете отвечать на сообщения
    Вы не можете редактировать свои сообщения
    Вы не можете удалять свои сообщения
    Вы не можете голосовать в опросах
    Вы не можете прикреплять файлы к сообщениям
    Вы можете скачивать файлы