Ссылка на приватное зеркало всего за 1$. Внимание количество ограничено!!!

OK

1+1

iTunes

мы

OK

1

WEB-DLRip

Джокер

Пифагор

Ведьмак / The Witcher сериал

Лицензия

ПШазам

ОК

Оно 2

iTunes

30
pack

Вам бонус

ВАЖНО

!!Акция!!

Alien_RageХит недели

RePack

Resident Evil 21

ИГРА 18+

pack

RePack

jed

!!Акция!!

Alien_Rage

RePack

fifa19

RePack

Assassins Creed: Odyssey

RePack

NEED FOR SPEED™ PAYBACK

4 сезон

9 сезон

Бесстыжие 9 сезон

Все сериалы

все сериалы на PB.wtf

RePack

FAR CRY 5
  

Хэллоуин: Воскрешение / Halloween: Resurrection (Рик Розенталь) [2002 г., Ужасы, Триллер, BDRip 1080p, Дубляж] pb.wtf

Хэллоуин: Воскрешение через торрент pb.wtf

Размер: 9.76 GB | Добавлен: 8 мес. назад | Торрент скачан:2 раза
Скачать  

09-05-2019 16:10 Хэллоуин: Воскрешение Скачать торрент  

Хэллоуин: Воскрешение /
Halloween: Resurrection
Год выпуска: 2002
Страна: США
Жанр: Ужасы, Триллер
Продолжительность: 01:29:32
Перевод: Профессиональный (полное дублирование) Лицензия
Субтитры: отсутствуют

Режиссер: Рик Розенталь

Премьера в мире: 1 июля 2002

rating

В ролях: Баста Раймс, Бьянка Кэйлик, Томас Иэн Николас, Райан Мерриман, Шон Патрик Томас, Тайра Бэнкс, Джейми Ли Кёртис, Брэд Лори, Дэйзи МакКрэкин, Кэти Сакхофф

Описание: Некий шоу-бизнесмен устраивает в доме печально известного убийцы Майкла Майерса, считающегося мертвым, действо, весьма напоминающее шоу «За стеклом». Группа подростков должна провести ночь в доме маньяка с трансляцией всего происходящего в интернет, из оборудования только е-майл.
Чего бояться, если хозяин давно мертв? Но возникает одна проблема — Майерс возвращается в родные стены…

Качество: BDRip 1080p
Формат: MKV
Видео кодек: H.264
Аудио кодек: AC3
Видео: AVC/H.264, 1920х816 (2,35:1), ~15,2 Mbps, 0.403 bit/pixel
Аудио#1: Русский: AC3, 6 ch, 448 kbps - Профессиональный (полное дублирование) Лицензия
Релиз от: winchester00100010
Общее
Уникальный идентификатор : 213133585157752357593026616787522823991 (0xA058090EBA8C7B9486110B1B71202737)
Полное имя : E:\МОИ РАЗДАЧИ ФИЛЬМЫ И СЕРИАЛЫ\Halloween.Resurrection.2002.BDRip.1080p.mkv
Формат : Matroska
Версия формата : Version 2
Размер файла : 9,76 Гбайт
Продолжительность : 1 ч. 29 м.
Общий поток : 15,6 Мбит/сек
Дата кодирования : UTC 2019-05-07 01:23:15
Программа кодирования : mkvmerge v7.8.0 ('River Man') 32bit built on Apr 3 2015 12:11:22
Библиотека кодирования : libebml v1.3.1 + libmatroska v1.4.2

Видео
Идентификатор : 1
Формат : AVC
Формат/Информация : Advanced Video Codec
Профиль формата : High@L4.1
Настройки формата : CABAC / 5 Ref Frames
Параметр CABAC формата : Да
Параметр RefFrames формата : 5 кадров
Идентификатор кодека : V_MPEG4/ISO/AVC
Продолжительность : 1 ч. 29 м.
Битрейт : 15,2 Мбит/сек
Ширина : 1920 пикселей
Высота : 816 пикселей
Соотношение сторон : 2,35:1
Режим частоты кадров : Постоянный
Частота кадров : 23,976 (24000/1001) кадра/сек
Цветовое пространство : YUV
Субдискретизация насыщенности : 4:2:0
Битовая глубина : 8 бит
Тип развёртки : Прогрессивная
Бит/(Пиксели*Кадры) : 0.403
Размер потока : 9,28 Гбайт (95%)
Библиотека кодирования : x264 core 146 r2538 121396c
Настройки программы : cabac=1 / ref=5 / deblock=1:-3:-3 / analyse=0x3:0x113 / me=umh / subme=9 / psy=1 / psy_rd=1.00:0.15 / mixed_ref=1 / me_range=24 / chroma_me=1 / trellis=2 / 8x8dct=1 / cqm=0 / deadzone=21,11 / fast_pskip=0 / chroma_qp_offset=-3 / threads=12 / lookahead_threads=2 / sliced_threads=0 / nr=0 / decimate=0 / interlaced=0 / bluray_compat=0 / constrained_intra=0 / bframes=6 / b_pyramid=2 / b_adapt=2 / b_bias=0 / direct=3 / weightb=1 / open_gop=0 / weightp=2 / keyint=240 / keyint_min=24 / scenecut=40 / intra_refresh=0 / rc_lookahead=40 / rc=2pass / mbtree=0 / bitrate=15154 / ratetol=1.0 / qcomp=0.60 / qpmin=0 / qpmax=69 / qpstep=4 / cplxblur=20.0 / qblur=0.5 / vbv_maxrate=50000 / vbv_bufsize=62500 / nal_hrd=none / filler=0 / ip_ratio=1.40 / pb_ratio=1.30 / aq=1:0.80
Default : Да
Forced : Нет

Аудио
Идентификатор : 2
Формат : AC-3
Формат/Информация : Audio Coding 3
Коммерческое название : Dolby Digital
Идентификатор кодека : A_AC3
Продолжительность : 1 ч. 29 м.
Вид битрейта : Постоянный
Битрейт : 448 Кбит/сек
Каналы : 6 каналов
Channel layout : L R C LFE Ls Rs
Частота : 48,0 КГц
Частота кадров : 31,250 кадров/сек (1536 SPF)
Битовая глубина : 16 бит
Метод сжатия : С потерями
Размер потока : 287 Мбайт (3%)
ServiceKind/String : Complete Main
Default : Да
Forced : Нет

pb.wtf



Скачать Хэллоуин: Воскрешение через торрент http://pic1.kartinco.top/images/11/dujmu.jpg Скачать фильм Хэллоуин: Воскрешение через торрент бесплантно в хорошем качестве Описание: Некий шоу-бизнесмен устраивает в доме печально известного убийцы Майкла Майерса, считающегося мертвым, действо, весьма ... 10 10 1
Info! Золотая раздача, скачанное не засчитывается.
Торрент: Зарегистрирован [2019-05-09 16:10] · скачан: 2 раз
Статус: √ проверено
Размер: 9.76 GB
Как cкачать? Как скачать Хэллоуин: Воскрешение через торрент | qTorrent

% Раздел Тема Автор DL S | L
Фильмы 2001-2005 [ 2.28 GB ] Хэллоуин: Воскрешение / Halloween: Resurrection [2002 BDRip-AVC ] winchester00100010 Скачать
1 | 0
Фильмы [HD 720p, 1080p] (Хороший звук DUB, MVO) [ 4.34 GB ] Хэллоуин: Воскрешение / Halloween: Resurrection [2002 BDRip 720p ] winchester00100010 Скачать
1 | 0

28-11-2019 20:33  

Отключить всю рекламу на сайте

09-05-2019 16:11 Хэллоуин: Воскрешение Скачать торрент  

Всем приятного просмотра))pb.wtf



    Дорогой пользователь! Огромная просьба, поблагодарите релизера, оцените раздачу и оставьте свои комментарий, если Вы скачали Хэллоуин: Воскрешение через торрент бесплатно! Внесите свою лепту в развитие PiratBit!
    Комментировать посты могут только пользователи прошедшие не сложную регистрацию
    Показать сообщения:    

    Хэллоуин: Воскрешение через торрент
    Скачать бесплатно Хэллоуин: Воскрешение
    Хэллоуин: Воскрешение скачать торрент
    Хэллоуин: Воскрешение смотреть онлайн
    Cкачать фильм Хэллоуин: Воскрешение бесплатно
    Хэллоуин: Воскрешение скачать торрент в хорошем качестве
    Хэллоуин: Воскрешение смотреть онлайн бесплатно в хорошем качестве


    Вы не можете начинать темы
    Вы не можете отвечать на сообщения
    Вы не можете редактировать свои сообщения
    Вы не можете удалять свои сообщения
    Вы не можете голосовать в опросах
    Вы не можете прикреплять файлы к сообщениям
    Вы можете скачивать файлы