Ссылка на приватное зеркало нашего сайта всего за 1$. Внимание количество ограничено!!!

2 сезон

iTunes

1 сезон

1

iTunes

iTunes

iTunes

1 сезон

RePack

30

ИГРА 18+

pack

ВАЖНО

!!Акция!!

Alien_RageХит недели

RePack

MK11
pack

Забери бонус

RePack

jed

!!Акция!!

Alien_Rage

RePack

fifa19

RePack

Assassins Creed: Odyssey

RePack

NEED FOR SPEED™ PAYBACK

4 сезон

9 сезон

Бесстыжие 9 сезон

Все сериалы

все сериалы на PB.wtf

RePack

FAR CRY 5
  

100 вещей и ничего лишнего / 100 Dinge (Флориан Давид Фиц / Florian David Fitz) [2018, комедия, WEB-DL 720p] 2x[Dub] [iTunes] (Rus, Ukr) pb.wtf

100 вещей и ничего лишнего через торрент pb.wtf

Раздают: 2 [ 0 KB/s ]
Размер: 3.58 GB | Добавлен: 1 год 5 мес. назад | Торрент скачан:528 раз
Скачать  

10-05-2019 05:17 100 вещей и ничего лишнего Скачать торрент  

100 вещей и ничего лишнего / 100 Dinge

Страна: Германия
Жанр: комедия
Год выпуска: 2018
Продолжительность: 01:46:15
Перевод: Профессиональный (дублированный) | iTunes
Субтитры: Русские, Литовские

Режиссер: Флориан Давид Фиц / Florian David Fitz
В ролях: Флориан Давид Фитц, Маттиас Швайгхефер, Мириам Штайн, Ханнелоре Эльснер, Вольфганг Штумф, Катарина Тальбах, Йоханнес Алльмайер, Сара Виктория Фрик, Макс Бретшнайдер, Мария Фуртвенглер
Описание: Лучшие друзья Пауль и Тони, находясь буквально в шаге от богатства, на спор отказываются от всего своего имущества, чтобы доказать — вещи не имеют на парней никакого влияния. Ставки высоки, а их пари оказывается под угрозой, когда на горизонте появляется симпатичная девушка, ведь сложно произвести впечатление, когда ты миллионер без штанов…

Качество видео: WEB-DL 720p
Формат видео: MKV

Видео: 1280@960x536, 25.000 fps, 4053 Кбит/с
Аудио: 48 kHz, AC3 Dolby Digital, 3/2 (L,C,R,l,r) + LFE ch, ~384 kbps - RUS
Аудио: 48 kHz, AC3 Dolby Digital, 3/2 (L,C,R,l,r) + LFE ch, ~384 kbps - UKR
Общее
Уникальный идентификатор : 178417435079362836950979548864236241892 (0x8639F2B580AF6639AE190BA0BE8843E4)
Полное имя : 100.Dinge.2018.D.WEB-DL.720p.mkv
Формат : Matroska
Версия формата : Version 4
Размер файла : 3,58 Гбайт
Продолжительность : 1 ч. 46 м.
Общий поток : 4824 Кбит/сек
Дата кодирования : UTC 2019-05-09 10:50:02
Программа кодирования : mkvmerge v8.5.1 ('Where you lead I will follow') 64bit
Библиотека кодирования : libebml v1.3.3 + libmatroska v1.4.4

Видео
Идентификатор : 1
Формат : AVC
Формат/Информация : Advanced Video Codec
Профиль формата : Main@L3.1
Настройки формата : 2 Ref Frames
Параметр CABAC формата : Нет
Параметр RefFrames формата : 2 кадра
Идентификатор кодека : V_MPEG4/ISO/AVC
Продолжительность : 1 ч. 46 м.
Битрейт : 4053 Кбит/сек
Ширина : 960 пикселей
Высота : 536 пикселей
Соотношение сторон : 2,40:1
Режим частоты кадров : Постоянный
Частота кадров : 25,000 кадров/сек
Цветовое пространство : YUV
Субдискретизация насыщенности : 4:2:0
Битовая глубина : 8 бит
Тип развёртки : Прогрессивная
Бит/(Пиксели*Кадры) : 0.315
Размер потока : 3,01 Гбайт (84%)
Заголовок : Main Program
Язык : English
Default : Да
Forced : Нет
Цветовой диапазон : Limited
Основные цвета : BT.709
Характеристики трансфера : BT.709
Коэффициенты матрицы : BT.709

Аудио #1
Идентификатор : 2
Формат : AC-3
Формат/Информация : Audio Coding 3
Коммерческое название : Dolby Digital
Идентификатор кодека : A_AC3
Продолжительность : 1 ч. 46 м.
Вид битрейта : Постоянный
Битрейт : 384 Кбит/сек
Каналы : 6 каналов
Channel layout : L R C LFE Ls Rs
Частота : 48,0 КГц
Частота кадров : 31,250 кадров/сек (1536 SPF)
Битовая глубина : 16 бит
Метод сжатия : С потерями
Размер потока : 292 Мбайт (8%)
Заголовок : Russian DUB from iTunes Russia DD 5.1
Язык : Russian
ServiceKind/String : Complete Main
Default : Да
Forced : Нет

Аудио #2
Идентификатор : 3
Формат : AC-3
Формат/Информация : Audio Coding 3
Коммерческое название : Dolby Digital
Идентификатор кодека : A_AC3
Продолжительность : 1 ч. 46 м.
Вид битрейта : Постоянный
Битрейт : 384 Кбит/сек
Каналы : 6 каналов
Channel layout : L R C LFE Ls Rs
Частота : 48,0 КГц
Частота кадров : 31,250 кадров/сек (1536 SPF)
Битовая глубина : 16 бит
Метод сжатия : С потерями
Размер потока : 292 Мбайт (8%)
Заголовок : Ukrainian DUB from iTunes Russia DD 5.1
Язык : Ukrainian
ServiceKind/String : Complete Main
Default : Нет
Forced : Нет

Текст #1
Идентификатор : 4
Формат : UTF-8
Идентификатор кодека : S_TEXT/UTF8
Идентификатор кодека/Информация : UTF-8 Plain Text
Продолжительность : 1 ч. 41 м.
Битрейт : 230 бит/сек
ElementCount : 1612
Размер потока : 171 Кбайт (0%)
Заголовок : Russian Subtitle
Язык : Russian
Default : Да
Forced : Нет

Текст #2
Идентификатор : 5
Формат : UTF-8
Идентификатор кодека : S_TEXT/UTF8
Идентификатор кодека/Информация : UTF-8 Plain Text
Продолжительность : 1 ч. 41 м.
Битрейт : 184 бит/сек
ElementCount : 1622
Размер потока : 137 Кбайт (0%)
Заголовок : Lithuanian Subtitle
Язык : Lithuanian
Default : Нет
Forced : Нет

Меню
00:00:00.000 : en:Глава 1
00:08:16.960 : en:Глава 2
00:17:30.400 : en:Глава 3
00:26:00.160 : en:Глава 4
00:34:42.760 : en:Глава 5
00:43:29.680 : en:Глава 6
00:51:59.600 : en:Глава 7
01:00:31.440 : en:Глава 8
01:08:36.240 : en:Глава 9
01:17:20.080 : en:Глава 10
01:25:38.120 : en:Глава 11
01:34:42.680 : en:Глава 12
скриншот  скриншот  скриншот  
pb.wtf



Скачать 100 вещей и ничего лишнего через торрент https://i3.imageban.ru/out/2019/05/09/6f8e62637c3ed736d1e2d92c0a41ddbc.jpg Скачать фильм 100 вещей и ничего лишнего через торрент бесплантно в хорошем качестве Описание: Лучшие друзья Пауль и Тони, находясь буквально в шаге от богатства, на спор отказываются от всего своего имущества, чтобы ... 10 10 9
Торрент: Зарегистрирован [2019-05-10 05:17] · скачан: 528 раз
Статус: √ проверено
Размер: 3.58 GB
Как cкачать? Как скачать 100 вещей и ничего лишнего через торрент | qTorrent

% Раздел Тема Автор DL S | L
Фильмы 2018 [DVDrip, WEB-DLRip, HDrip] (DUB, MVO) [ 2.13 GB ] 100 вещей и ничего лишнего / 100 Dinge [2018 BDRip] - Twi7ter Скачать
30 | 1
Фильмы 2018 [DVDrip, WEB-DLRip, HDrip] (DUB, MVO) [ 1.41 GB ] 100 вещей и ничего лишнего / 100 Dinge [2018 BDRip] - Twi7ter Скачать
9 | 0
Фильмы [HD 720p, 1080p] (Хороший звук DUB, MVO) [ 5.34 GB ] 100 вещей и ничего лишнего / 100 Dinge [2018 BDRip 720p] DUB bober100 Скачать
1 | 0
Фильмы 2018 [DVDrip, WEB-DLRip, HDrip] (DUB, MVO) [ 1.41 GB ] 100 вещей и ничего лишнего / 100 Dinge [2018 BDRip] bober100 Скачать
2 | 0
Фильмы [HD 720p, 1080p] (Хороший звук DUB, MVO) [ 10.66 GB ] 100 вещей и ничего лишнего / 100 Dinge [2018 BDRip 1080p] DUB bober100 Скачать
2 | 0
Фильмы (Blu-ray, BD-Remux, HDDVD) [ 30.42 GB ] 100 вещей и ничего лишнего / 100 Dinge [2018 BD Remux 1080p] DUB bober100 Скачать
1 | 0
Фильмы (WEB-DL 720p, 1080p) [ 4.42 GB ] 100 вещей и ничего лишнего / 100 Dinge [2018 WEB-DL 1080p] DUB bober100 Скачать
1 | 0

28-11-2019 20:33  

Отключить всю рекламу на сайте

    Дорогой пользователь! Огромная просьба, поблагодарите релизера, оцените раздачу и оставьте свои комментарий, если Вы скачали 100 вещей и ничего лишнего через торрент бесплатно! Внесите свою лепту в развитие PiratBit!
    Комментировать посты могут только пользователи прошедшие не сложную регистрацию
    Показать сообщения:    

    100 вещей и ничего лишнего через торрент
    Скачать бесплатно 100 вещей и ничего лишнего
    100 вещей и ничего лишнего скачать торрент
    100 вещей и ничего лишнего смотреть онлайн
    Cкачать фильм 100 вещей и ничего лишнего бесплатно
    100 вещей и ничего лишнего скачать торрент в хорошем качестве
    100 вещей и ничего лишнего смотреть онлайн бесплатно в хорошем качестве


    Вы не можете начинать темы
    Вы не можете отвечать на сообщения
    Вы не можете редактировать свои сообщения
    Вы не можете удалять свои сообщения
    Вы не можете голосовать в опросах
    Вы не можете прикреплять файлы к сообщениям
    Вы можете скачивать файлы