MEGA NEWS Получи личный уникальный адрес сайта и защити себя от блокировок. Внимание количество ограничено!!!

iTunes

1+1

iTunes

мы

iTunes

1

iTunes

Чернобыль

iTunes

Ральф против интернета

Лицензия

ПШазам

Лицензия

Игра престолов

Лицензия

30
pack

ВАЖНО

!!Акция!!

Alien_RageХит недели

RePack

Resident Evil 21

ИГРА 18+

pack

RePack

Metro:Exodus

!!Акция!!

Alien_Rage

RePack

fifa19

RePack

Assassins Creed: Odyssey

RePack

NEED FOR SPEED™ PAYBACK

3 сезон

9 сезон

Бесстыжие 9 сезон

Все сериалы

все сериалы на PB.wtf

RePack

FAR CRY 5
Ребята, катастрофически не хватает 1900р. для оплаты серверов за АВГУСТ (всвязи с блокировками трафик упал в 3 раза), 1-2р., выручайте.
  

Чернобыль / Chernobyl / Сезон: 1 / Серии: 1-5 из 5 (Йохан Ренк) [2019, драма, история, WEB-DL 1080p] [MVO] (AlexFilm) pb.wtf

Чернобыль через торрент pb.wtf

Раздают: 11 [ 205 KB/s ] Качают: 1 [ 0 KB/s ]
Размер: 23.2 GB | Добавлен: 4 мес. 13 д. назад | Торрент скачан:780 раз
Скачать  

10-05-2019 16:31 Чернобыль Скачать торрент  

Чернобыль | Chernobyl
Год выпуска: 2019
Страна: Великобритания, США
Жанр: Драма, история
Продолжительность: ~ 00:55:00
Перевод: Профессиональный (многоголосый закадровый) | AlexFilm
Режиссёр: Йохан Ренк

В ролях: Джаред Харрис, Стеллан Скарсгард, Эмили Уотсон, Джошуа Лис, Росс Армстронг, Фил Барантини, Джесси Бакли, Джеймс Космо, Дэниэл Стоунер, Карл Дейвис и др.
Описание: История об аварии на Чернобыльской АЭС в 1986 году, эвакуации жителей Припяти и ликвидации последствий.

Перевод: Константин Кривоногов
Монтаж и сведение звука: Михаил Шорыгин

Роли озвучивали:
Екатерина Кабашова
Пётр Гланц Иващенко
Владимир Курдов
Михаил Цареградский
Кирилл Патрино
Михаил Федосеев


Качество: WEB-DL 1080p
Формат: MKV
Видео: AVC, 1920х1080, ~8900 Kbps, 23.976 fps
Аудио №1: AC3, 48,0 kHz, 6 ch, 384 kbps | AlexFilm
Аудио №2: AC3, 48,0 kHz, 6 ch, 640 kbps | Original
Субтитры: Английские (Full, SDH)

Реклама: Отсутствует
Исходник: Chernobyl.S01.1080p.AMZN.WEB-DL.DDP5.1.x264-NTb
01. 1:23:45
Complete name : D:\Shows\Chernobyl_(s01)_1080p\Chernobyl.2019.S01E01.1.23.45.1080p.AMZN.WEB-DL.DD5.1.x264-NTb.mkv
Format : Matroska
Format version : Version 2
File size : 4.25 GiB
Duration : 1 h 0 min
Overall bit rate : 10.1 Mb/s
Encoded date : UTC 2019-05-10 10:20:12
Writing application : mkvmerge v4.9.1 ('Ich will') сборка от Jul 11 2011 23:53:15
Writing library : libebml v1.2.1 + libmatroska v1.1.1

Video
ID : 1
Format : AVC
Format/Info : Advanced Video Codec
Format profile : High@L4
Format settings : CABAC / 4 Ref Frames
Format settings, CABAC : Yes
Format settings, ReFrames : 4 frames
Codec ID : V_MPEG4/ISO/AVC
Duration : 1 h 0 min
Bit rate mode : Constant
Bit rate : 8 889 kb/s
Nominal bit rate : 10 000 kb/s
Width : 1 920 pixels
Height : 1 080 pixels
Display aspect ratio : 16:9
Frame rate mode : Constant
Frame rate : 23.976 (24000/1001) FPS
Color space : YUV
Chroma subsampling : 4:2:0
Bit depth : 8 bits
Scan type : Progressive
Bits/(Pixel*Frame) : 0.179
Stream size : 3.74 GiB (88%)
Title : Release by EniaHD
Default : Yes
Forced : No
Color range : Limited
Color primaries : BT.709
Transfer characteristics : BT.709
Matrix coefficients : BT.709

Audio #1
ID : 2
Format : AC-3
Format/Info : Audio Coding 3
Commercial name : Dolby Digital
Codec ID : A_AC3
Duration : 1 h 0 min
Bit rate mode : Constant
Bit rate : 384 kb/s
Channel(s) : 6 channels
Channel layout : L R C LFE Ls Rs
Sampling rate : 48.0 kHz
Frame rate : 31.250 FPS (1536 SPF)
Bit depth : 16 bits
Compression mode : Lossy
Stream size : 165 MiB (4%)
Title : AlexFilm
Language : Russian
Service kind : Complete Main
Default : Yes
Forced : No

Audio #2
ID : 3
Format : AC-3
Format/Info : Audio Coding 3
Commercial name : Dolby Digital
Codec ID : A_AC3
Duration : 1 h 0 min
Bit rate mode : Constant
Bit rate : 640 kb/s
Channel(s) : 6 channels
Channel layout : L R C LFE Ls Rs
Sampling rate : 48.0 kHz
Frame rate : 31.250 FPS (1536 SPF)
Bit depth : 16 bits
Compression mode : Lossy
Stream size : 276 MiB (6%)
Language : English
Service kind : Complete Main
Default : No
Forced : No

Text #1
ID : 4
Format : UTF-8
Codec ID : S_TEXT/UTF8
Codec ID/Info : UTF-8 Plain Text
Title : Full
Language : English
Default : No
Forced : No

Text #2
ID : 5
Format : UTF-8
Codec ID : S_TEXT/UTF8
Codec ID/Info : UTF-8 Plain Text
Title : SDH
Language : English
Default : No
Forced : No
скриншот  скриншот  скриншот  
pb.wtf



Скачать Чернобыль через торрент https://b.radikal.ru/b16/1905/7c/c6198bdec390.png Скачать фильм Чернобыль через торрент бесплантно в хорошем качестве Описание: История об аварии на Чернобыльской АЭС в 1986 году, эвакуации жителей Припяти и ликвидации последствий.Перевод: Константин ... 9.9 10 43
Info! Золотая раздача, скачанное не засчитывается.
Торрент: Зарегистрирован [2019-06-05 17:31] · скачан: 780 раз
Статус: √ проверено
Размер: 23.2 GB
Как cкачать? Как скачать Чернобыль через торрент | qTorrent

% Раздел Тема Автор DL S | L
Зарубежные сериалы [ 61.27 GB ] Чернобыль / Chernobyl / Сезон: 1 / Серии: 1-5 из 5 [2019 история BDRemux 1080i] 2xMVO [Amedia AlexFilm] bober100 Скачать
1 | 2
R.G.Resident - Сериалы, Видео [ 1.45 GB ] Чернобыль / Chernobyl / Сезон: 1 / Серии: 1-5 из 5 [2019 история WEB-DLRip | КПК ] MVO [Amedia] Cтрана Скачать
1 | 0
Зарубежные сериалы [ 23.29 GB ] Чернобыль / Chernobyl / Сезон: 1 / Серии: 1-5 из 5 [2019 история WEB-DL 1080p] [MVO] killermax2013 Скачать
22 | 5
Зарубежные сериалы [ 6.42 GB ] Чернобыль / Chernobyl / Сезон: 1 / Серии: 1-5 из 5 [2019 история WEB-DLRip] MVO [Amedia] Twi7ter Скачать
73 | 21
Зарубежные сериалы [ 4.58 GB ] Чернобыль / Chernobyl / Сезон: 1 / Серии: 1-5 из 5 [2019 история WEB-DLRip] [MVO] killermax2013 Скачать
33 | 4
Зарубежные сериалы [ 13.07 GB ] Чернобыль / Chernobyl / Сезон: 1 / Серии: 1-5 из 5 [2019 история WEB-DL 720p] [MVO] killermax2013 Скачать
14 | 2
Зарубежные сериалы [ 4.21 GB ] Чернобыль / Chernobyl / Сезон: 1 / Серии: 1-5 из 5 [2019 история WEB-DLRip] MVO [Amedia] bober100 Скачать
7 | 2


Последний раз редактировалось: killermax2013 (2019-06-05 17:31), всего редактировалось 4 раз(а)


>> Регистрируемся здесь <<






Отзывы и комментарии о схеме читаем и пишем здесь: ---> Отзывы и комментарии о схеме

Новые благодарочки в телеграм довольных пользователей:
скриншот   скриншот   скриншот   скриншот   скриншот

13-05-2019 22:20 Чернобыль Скачать торрент  

Очень страшный и жуткий фильм! Было не по себе от осознания того что там произошло! Снято здорово. Выразительно показано почему рухнула советская система власти!pb.wtf



30-05-2019 09:34 Чернобыль Скачать торрент  

Очень качественный перевод от AlexFilm, наконец то дождался!!!!!pb.wtf



30-05-2019 10:34 Чернобыль Скачать торрент  

sergei63 писал(а):

Очень качественный перевод от AlexFilm, наконец то дождался!!!!!

полностью согласен pb.wtf



30-05-2019 14:32 Чернобыль Скачать торрент  

Подскажите, какой лучше, этот или от Amedia? (я про перевод)pb.wtf
Kkillermax2013 писал(а):

читайте комментарии выше ))



03-06-2019 15:52 Чернобыль Скачать торрент  

А когда будет 5 серия?pb.wtf



03-06-2019 19:19 Чернобыль Скачать торрент  

matanaska писал(а):

А когда будет 5 серия?

4 июня выйдет на Амедиа и сюда добавят.pb.wtf



04-06-2019 08:16 Чернобыль Скачать торрент  

Будет ли 2 сезон или нет?pb.wtf



05-06-2019 17:42 Чернобыль Скачать торрент  

Спасибо ликвидаторам за сегодняшний день!Вот такое нужно показывать в день памяти жертв аварии на ЧАЭС!Очень атмосферно и радует,что брались за основу именно слова Легасова.Человек с большой буквы!pb.wtf



11-06-2019 19:21 Чернобыль Скачать торрент  

TiLiK писал(а):

Спасибо ликвидаторам за сегодняшний день!Вот такое нужно показывать в день памяти жертв аварии на ЧАЭС!Очень атмосферно и радует,что брались за основу именно слова Легасова.Человек с большой буквы!

Полностью с тобой согласен!
Фильм снят потрясающе!!! И рейтинг оправданный!pb.wtf



03-07-2019 16:56 Чернобыль Скачать торрент  

После просмотра множества документальных фильмов это фильм совсем не цепляет и без него все было понятно. А они пусть про себя снимают как на японцев бобами убивали мы посмотрим.pb.wtf



    Дорогой пользователь! Огромная просьба, поблагодарите релизера, оцените раздачу и оставьте свои комментарий, если Вы скачали Чернобыль через торрент бесплатно! Внесите свою лепту в развитие PiratBit!
    Комментировать посты могут только пользователи прошедшие не сложную регистрацию
    Показать сообщения:    

    Чернобыль через торрент
    Скачать бесплатно Чернобыль
    Чернобыль скачать торрент
    Чернобыль смотреть онлайн
    Cкачать фильм Чернобыль бесплатно
    Чернобыль скачать торрент в хорошем качестве
    Чернобыль смотреть онлайн бесплатно в хорошем качестве


    Вы не можете начинать темы
    Вы не можете отвечать на сообщения
    Вы не можете редактировать свои сообщения
    Вы не можете удалять свои сообщения
    Вы не можете голосовать в опросах
    Вы не можете прикреплять файлы к сообщениям
    Вы можете скачивать файлы