Наша группа ВК в очередной раз забанена мы уходим в Телеграм, присоединяйтесь!!!

Лицензия

30

iTunes

мы

iTunes

1

1 сезон

Чернобыль

iTunes

1+1

iTunes

Закатать в асфальт

8 сезон

Игра престолов

1 сезон

Ральф против интернета

ИГРА 18+

pack

ВАЖНО

!!Акция!!

Alien_RageХит недели

RePack

Resident Evil 21
pack

RePack

Metro:Exodus

!!Акция!!

Alien_Rage

RePack

fifa19

RePack

Assassins Creed: Odyssey

RePack

NEED FOR SPEED™ PAYBACK

3 сезон

9 сезон

Бесстыжие 9 сезон

Все сериалы

все сериалы на PB.wtf

RePack

FAR CRY 5
Ребята, катастрофически не хватает 2730р. для оплаты серверов за АПРЕЛЬ (всвязи с блокировками трафик упал в 3 раза), 1-2р., выручайте.
  

Каникулы Гуфи / A Goofy Movie (Кевин Лима) [1995 г., мультфильм, мюзикл, мелодрама, комедия, приключения, семейный, BDRip 720p, Дубляж] pb.wtf

Каникулы Гуфи через торрент pb.wtf

Раздают: 6 [ 0 KB/s ] Качают: 2 [ 0 KB/s ]
Размер: 4.93 GB | Добавлен: 13 д. назад | Торрент скачан:94 раза
Скачать  

10-05-2019 19:50 Каникулы Гуфи Скачать торрент  

Каникулы Гуфи / A Goofy Movie
Год выпуска: 1995
Страна: США, Австралия, Франция, Канада, DisneyToon Studios
Жанр: мультфильм, мюзикл, мелодрама, комедия, приключения, семейный
Продолжительность: 01:17:40
Перевод: Дубляж, многоголосый, авторский
Субтитры: Русские, английские

Режиссер: Кевин Лима

Премьера в мире: 7 апреля 1995

rating

В ролях: Билл Фармер, Джейсон Мэрсден, Джим Каммингс, Келли Мартин, Роб Полсен, Уоллес Шоун, Дженна Фон Ой, Фрэнк Уэлкер, Кевин Лима, Флоренс Стэнли

Описание: Макс — сын Гуфи, он учится в обычной американской школе. Макс влюбляется в свою одноклассницу Роксанну, которая кажется ему самой красивой и самой лучшей на свете. Он хочет произвести на Роксанну впечатление, и придумывает всевозможные способы, чтобы выделиться. Гуфи по мере возможностей помогает своему сыну. В итоге девушка всё-же влюбляется в Макса.

Качество: BDRip 720p
Формат: MKV
Видео кодек: H.264
Аудио кодек: AC3
Видео: AVC, 8000 Кбит/с, 1280x692, 23.976 Кадр/с
Аудио#1: 48 kHz, AC3, 2.0, 192 Kbps (Русский дубляж)
Аудио#2: 48 kHz, AC3, 2.0, 192 Kbps (Многоголосый)
Аудио#3: 48 kHz, AC3, 2.0, 192 Kbps (Авторский одноголосый, П. Санавев)
Аудио#4: 48 kHz, AC3, 2.0, 192 Kbps (Украинский дубляж)
Аудио#5: 48 kHz, AC3, 2.0, 320 Kbps Оригинал
Релиз от:
--2pass --slow-firstpass --preset veryslow --me umh --subme 10 --bframes 7 --deblock -2:-2 --ipratio 1.3 --pbratio 1.2 --psy-rd 1.00.08 --qcomp 0.6 --aq-strength 3.75 --merange 32 --no-fast-pskip --no-mbtree --no-dct-decimate

x264 [info]: frame I:1060 Avg QP:15.87 size:147561
x264 [info]: frame P:28662 Avg QP:18.06 size: 69176
x264 [info]: frame B:82022 Avg QP:19.07 size: 30715

Формат : Matroska
Версия формата : Version 4
Размер файла : 4,93 Гбайт
Продолжительность : 1 ч. 17 м.
Общий поток : 9087 Кбит/сек
Название фильма : A.Goofy.Movie.1995.x264.BDRip.720p.Rus.Ukr.Eng.BLUEBIRD
Дата кодирования : UTC 2019-05-10 12:42:24
Программа кодирования : mkvmerge v7.9.0 ('Birds') 64bit
Библиотека кодирования : libebml v1.3.1 + libmatroska v1.4.2

Видео
Идентификатор : 1
Формат : AVC
Формат/Информация : Advanced Video Codec
Профиль формата : High@L4.1
Настройки формата : CABAC / 9 Ref Frames
Параметр CABAC формата : Да
Параметр RefFrames формата : 9 кадров
Идентификатор кодека : V_MPEG4/ISO/AVC
Продолжительность : 1 ч. 17 м.
Битрейт : 8000 Кбит/сек
Ширина : 1280 пикселей
Высота : 692 пикселя
Соотношение сторон : 1,85:1
Режим частоты кадров : Постоянный
Частота кадров : 23,976 (24000/1001) кадра/сек
Цветовое пространство : YUV
Субдискретизация насыщенности : 4:2:0
Битовая глубина : 8 бит
Тип развёртки : Прогрессивная
Бит/(Пиксели*Кадры) : 0.377
Размер потока : 4,34 Гбайт (88%)
Заголовок : A.Goofy.Movie.1995.x264.BDRip.720p.Rus.Ukr.Eng.BLUEBIRD
Библиотека кодирования : x264 core 157 r2969 d4099dd
Настройки программы : cabac=1 / ref=9 / deblock=1:-2:-2 / analyse=0x3:0x113 / me=umh / subme=10 / psy=1 / psy_rd=1.00:0.08 / mixed_ref=1 / me_range=32 / chroma_me=1 / trellis=2 / 8x8dct=1 / cqm=0 / deadzone=21,11 / fast_pskip=0 / chroma_qp_offset=-3 / threads=6 / lookahead_threads=1 / sliced_threads=0 / nr=0 / decimate=0 / interlaced=0 / bluray_compat=0 / constrained_intra=0 / bframes=7 / b_pyramid=2 / b_adapt=2 / b_bias=0 / direct=3 / weightb=1 / open_gop=0 / weightp=2 / keyint=240 / keyint_min=23 / scenecut=40 / intra_refresh=0 / rc_lookahead=80 / rc=2pass / mbtree=0 / bitrate=8000 / ratetol=1.0 / qcomp=0.60 / qpmin=0 / qpmax=69 / qpstep=4 / cplxblur=20.0 / qblur=0.5 / vbv_maxrate=62500 / vbv_bufsize=78125 / nal_hrd=none / filler=0 / ip_ratio=1.30 / pb_ratio=1.20 / aq=3:0.75 / zones=534,817,b=1.8/12905,13123,b=1.5/51444,51947,b=1.5/87205,97750,b=1.7/98747,99072,b=1.7/100204,100360,b=1.8/100915,101013,b=1.8/104890,111743,b=0.3
Язык : English
Default : Да
Forced : Нет

Аудио #1
Идентификатор : 2
Формат : AC-3
Формат/Информация : Audio Coding 3
Коммерческое название : Dolby Digital
Идентификатор кодека : A_AC3
Продолжительность : 1 ч. 17 м.
Вид битрейта : Постоянный
Битрейт : 192 Кбит/сек
Каналы : 2 канала
Channel layout : L R
Частота : 48,0 КГц
Частота кадров : 31,250 кадров/сек (1536 SPF)
Битовая глубина : 16 бит
Метод сжатия : С потерями
Размер потока : 107 Мбайт (2%)
Заголовок : Дублированный
Язык : Russian
ServiceKind/String : Complete Main
Default : Да
Forced : Нет

Аудио #2
Идентификатор : 3
Формат : AC-3
Формат/Информация : Audio Coding 3
Коммерческое название : Dolby Digital
Идентификатор кодека : A_AC3
Продолжительность : 1 ч. 17 м.
Вид битрейта : Постоянный
Битрейт : 192 Кбит/сек
Каналы : 2 канала
Channel layout : L R
Частота : 48,0 КГц
Частота кадров : 31,250 кадров/сек (1536 SPF)
Битовая глубина : 16 бит
Метод сжатия : С потерями
Размер потока : 107 Мбайт (2%)
Заголовок : Профессиональный многоголосый
Язык : Russian
ServiceKind/String : Complete Main
Default : Нет
Forced : Нет

Аудио #3
Идентификатор : 4
Формат : AC-3
Формат/Информация : Audio Coding 3
Коммерческое название : Dolby Digital
Идентификатор кодека : A_AC3
Продолжительность : 1 ч. 17 м.
Вид битрейта : Постоянный
Битрейт : 192 Кбит/сек
Каналы : 2 канала
Channel layout : L R
Частота : 48,0 КГц
Частота кадров : 31,250 кадров/сек (1536 SPF)
Битовая глубина : 16 бит
Метод сжатия : С потерями
Размер потока : 107 Мбайт (2%)
Заголовок : Авторский одноголосый (П.Санаев)
Язык : Russian
ServiceKind/String : Complete Main
Default : Нет
Forced : Нет

Аудио #4
Идентификатор : 5
Формат : AC-3
Формат/Информация : Audio Coding 3
Коммерческое название : Dolby Digital
Идентификатор кодека : A_AC3
Продолжительность : 1 ч. 17 м.
Вид битрейта : Постоянный
Битрейт : 192 Кбит/сек
Каналы : 2 канала
Channel layout : L R
Частота : 48,0 КГц
Частота кадров : 31,250 кадров/сек (1536 SPF)
Битовая глубина : 16 бит
Метод сжатия : С потерями
Размер потока : 107 Мбайт (2%)
Заголовок : Дублированный (LeDoyen)
Язык : Ukrainian
ServiceKind/String : Complete Main
Default : Нет
Forced : Нет

Аудио #5
Идентификатор : 6
Формат : AC-3
Формат/Информация : Audio Coding 3
Коммерческое название : Dolby Digital
Идентификатор кодека : A_AC3
Продолжительность : 1 ч. 17 м.
Вид битрейта : Постоянный
Битрейт : 320 Кбит/сек
Каналы : 2 канала
Channel layout : L R
Частота : 48,0 КГц
Частота кадров : 31,250 кадров/сек (1536 SPF)
Битовая глубина : 16 бит
Метод сжатия : С потерями
Размер потока : 178 Мбайт (4%)
Язык : English
ServiceKind/String : Complete Main
Default : Нет
Forced : Нет

Текст #1
Идентификатор : 7
Формат : UTF-8
Идентификатор кодека : S_TEXT/UTF8
Идентификатор кодека/Информация : UTF-8 Plain Text
Продолжительность : 2 с. 207 мс.
Битрейт : 2276 бит/сек
ElementCount : 1
Размер потока : 628 байт (0%)
Заголовок : Forced (BLUEBIRD)
Язык : Russian
Default : Нет
Forced : Нет

Текст #2
Идентификатор : 8
Формат : UTF-8
Идентификатор кодека : S_TEXT/UTF8
Идентификатор кодека/Информация : UTF-8 Plain Text
Продолжительность : 1 ч. 11 м.
Битрейт : 83 бит/сек
ElementCount : 954
Размер потока : 44,0 Кбайт (0%)
Заголовок : Full-length
Язык : Russian
Default : Нет
Forced : Нет

Текст #3
Идентификатор : 9
Формат : UTF-8
Идентификатор кодека : S_TEXT/UTF8
Идентификатор кодека/Информация : UTF-8 Plain Text
Продолжительность : 1 ч. 17 м.
Битрейт : 72 бит/сек
ElementCount : 1336
Размер потока : 40,8 Кбайт (0%)
Заголовок : SDH
Язык : English
Default : Нет
Forced : Нет

Меню
00:00:00.000 : en:00:00:00.000
00:05:27.244 : en:00:05:27.244
00:14:16.773 : en:00:14:16.773
00:20:25.141 : en:00:20:25.141
00:27:32.568 : en:00:27:32.568
00:37:58.818 : en:00:37:58.818
00:51:11.550 : en:00:51:11.550
00:57:42.376 : en:00:57:42.376
01:07:03.561 : en:01:07:03.561
01:12:18.876 : en:01:12:18.876
01:17:40.656 : en:01:17:40.656

Fixed OCR subs.
Logo Debanded. Used zones bitrate.

pb.wtf



Скачать Каникулы Гуфи через торрент http://img14.lostpic.net/2019/05/10/1b0c795635ad3ca9f1e0f0aba69fb5e7.png Скачать фильм Каникулы Гуфи через торрент бесплантно в хорошем качестве Описание: Макс — сын Гуфи, он учится в обычной американской школе. Макс влюбляется в свою одноклассницу Роксанну, которая кажется ему самой ... 10 10 8
Info! Золотая раздача, скачанное не засчитывается.
Торрент: Зарегистрирован [2019-05-10 19:50] · скачан: 94 раз
Статус: √ проверено
Размер: 4.93 GB
Как cкачать? Как скачать Каникулы Гуфи через торрент | qTorrent



Последний раз редактировалось: Quadropedia (2019-05-10 20:19), всего редактировалось 1 раз


>> Регистрируемся здесь <<






Отзывы и комментарии о схеме читаем и пишем здесь: ---> Отзывы и комментарии о схеме

Новые благодарочки в телеграм довольных пользователей:
скриншот   скриншот   скриншот   скриншот   скриншот

10-05-2019 19:54 Каникулы Гуфи Скачать торрент  

    Дорогой пользователь! Огромная просьба, поблагодарите релизера, оцените раздачу и оставьте свои комментарий, если Вы скачали Каникулы Гуфи через торрент бесплатно! Внесите свою лепту в развитие PiratBit!
    Комментировать посты могут только пользователи прошедшие не сложную регистрацию
    Показать сообщения:    

    Каникулы Гуфи через торрент
    Скачать бесплатно Каникулы Гуфи
    Каникулы Гуфи скачать торрент
    Каникулы Гуфи смотреть онлайн
    Cкачать фильм Каникулы Гуфи бесплатно
    Каникулы Гуфи скачать торрент в хорошем качестве
    Каникулы Гуфи смотреть онлайн бесплатно в хорошем качестве


    Вы не можете начинать темы
    Вы не можете отвечать на сообщения
    Вы не можете редактировать свои сообщения
    Вы не можете удалять свои сообщения
    Вы не можете голосовать в опросах
    Вы не можете прикреплять файлы к сообщениям
    Вы можете скачивать файлы