Ссылка на приватное зеркало нашего сайта всего за 1$. Внимание количество ограничено!!!

2 сезон

iTunes

1 сезон

1

2 сезон

2 сезон

iTunes

1 сезон

RePack

30

Ultimate

ВАЖНО

ИГРА 18+

pack

RePack

MK11
pack

Забери бонус

RePack

jed

!!Акция!!

Alien_Rage

RePack

fifa19

RePack

Assassins Creed: Odyssey

RePack

NEED FOR SPEED™ PAYBACK

4 сезон

9 сезон

Бесстыжие 9 сезон

Все сериалы

все сериалы на PB.wtf

RePack

FAR CRY 5
  

Искупление / Atone (Уэс Миллер) [2019, Боевик, WEB-DL 1080p] MVO [HDRezka Studio] - ExKinoRay pb.wtf

Искупление через торрент pb.wtf

Раздают: 5 [ 0 KB/s ] Качают: 1 [ 0 KB/s ]
Размер: 3.3 GB | Добавлен: 1 год 6 мес. назад | Торрент скачан:137 раз
Скачать  

10-05-2019 23:32 Искупление Скачать торрент  

Название: Искупление (Покаяние)
Оригинальное название: Atone
Год выпуска: 2019
Жанр: Боевик
Режиссер: Уэс Миллер
В ролях: Роберт Раслер, Коламбус Шорт, Стефен Фаррелли, Скотт Элрод, Жаклин Флеминг, Коттон Янси, Майкл Рэндолл, Аспен Кеннеди Уилсон, Кертис Никулс, Джексон Роуден

Описание: Лаура Бишоп — бывший солдат элитного отряда специального назначения, которая переживает не самые лучшие времена. Ей приходится в одиночку заботится о своей единственной дочери и привыкать к гражданской жизни. Когда Лаура получает новую работу, которая состоит в обеспечении безопасности огромной церкви, ничего не предвещает беды, однако ее не покидает тревожное чувство. Неожиданно церковь захватывает группа вооруженных людей в масках, а внутри, вместе с остальными заложниками, оказывается дочь главной героини...

rating

Выпущено: США, Sweet Unknown Studios, Soulidifly
Продолжительность: 01:29:51
Перевод: Профессиональный (многоголосый, закадровый) | HDRezka Studio
Субтитры: Английские

БЕЗ КАКОЙ-ЛИБО РЕКЛАМЫ!

Формат: MKV
Качество: WEB-DL 1080p
Видео: MPEG-4 AVC, 1902x804 (2.40:1), 23.976 fps, 4508 Kbps, 0.123 bit/pixel
Аудио 1: 48 kHz, AC3, 2.0, 256 Kbps | MVO | RUS |
Аудио 2: 48 kHz, AC3, 5.1, 384 Kbps | Оригинал | ENG |
General
Unique ID : 240795177498259219692171761602770092540 (0xB52776DB1B2916609D5DDF13E759C1FC)
Complete name : F:\Atone.2019.MVO.1080p.WEB-DL.ExKinoRay.mkv
Format : Matroska
Format version : Version 2
File size : 3.30 GiB
Duration : 1 h 29 min
Overall bit rate : 5 252 kb/s
Movie name : Atone 2019 from ExKinoRay
Encoded date : UTC 2019-05-10 21:54:52
Writing application : mkvmerge v5.6.0 ('Kenya Kane') built on May 27 2012 16:44:04
Writing library : libebml v1.2.3 + libmatroska v1.3.0

Video
ID : 1
Format : AVC
Format/Info : Advanced Video Codec
Format profile : High@L4
Format settings, CABAC : Yes
Format settings, ReFrames : 5 frames
Codec ID : V_MPEG4/ISO/AVC
Duration : 1 h 29 min
Bit rate : 4 508 kb/s
Width : 1 902 pixels
Height : 804 pixels
Display aspect ratio : 2.35:1
Frame rate mode : Constant
Frame rate : 23.976 FPS
Color space : YUV
Chroma subsampling : 4:2:0
Bit depth : 8 bits
Scan type : Progressive
Bits/(Pixel*Frame) : 0.123
Stream size : 2.83 GiB (86%)
Title : Atone.2019.1080p.WEB-DL
Language : English
Default : Yes
Forced : No
Color range : Limited
Color primaries : BT.709
Transfer characteristics : BT.709
Matrix coefficients : BT.709

Audio #1
ID : 2
Format : AC-3
Format/Info : Audio Coding 3
Mode extension : CM (complete main)
Format settings, Endianness : Big
Codec ID : A_AC3
Duration : 1 h 29 min
Bit rate mode : Constant
Bit rate : 256 kb/s
Channel(s) : 2 channels
Channel positions : Front: L R
Sampling rate : 48.0 kHz
Frame rate : 31.250 FPS (1536 spf)
Compression mode : Lossy
Stream size : 165 MiB (5%)
Title : MVO
Language : Russian
Default : Yes
Forced : No

Audio #2
ID : 3
Format : AC-3
Format/Info : Audio Coding 3
Mode extension : CM (complete main)
Format settings, Endianness : Big
Codec ID : A_AC3
Duration : 1 h 29 min
Bit rate mode : Constant
Bit rate : 384 kb/s
Channel(s) : 6 channels
Channel positions : Front: L C R, Side: L R, LFE
Sampling rate : 48.0 kHz
Frame rate : 31.250 FPS (1536 spf)
Compression mode : Lossy
Stream size : 247 MiB (7%)
Title : Original
Language : English
Default : No
Forced : No

Text
ID : 4
Format : UTF-8
Codec ID : S_TEXT/UTF8
Codec ID/Info : UTF-8 Plain Text
Language : English
Default : No
Forced : No

Menu
00:00:00.000 : en:1
00:05:54.000 : en:2
00:11:45.000 : en:3
00:17:41.000 : en:4
00:23:29.000 : en:5
00:29:21.000 : en:6
00:35:22.000 : en:7
00:41:08.000 : en:8
00:47:13.000 : en:9
00:52:30.000 : en:10
00:58:42.000 : en:11
01:04:38.000 : en:12
01:10:27.000 : en:13
01:15:55.000 : en:14
01:21:59.000 : en:15
01:28:10.000 : en:16
Релиз от:

Автор релиза: pb.wtf



Скачать Искупление через торрент https://d.radikal.ru/d07/1905/85/95b1d5b1b6ac.jpg Скачать фильм Искупление через торрент бесплантно в хорошем качестве Описание: Лаура Бишоп — бывший солдат элитного отряда специального назначения, которая переживает не самые лучшие времена. Ей приходится ... 10 10 1
Info! Золотая раздача, скачанное не засчитывается.
Торрент: Зарегистрирован [2019-05-10 23:32] · скачан: 137 раз
Статус: T временная
Размер: 3.3 GB
Как cкачать? Как скачать Искупление через торрент | qTorrent

% Раздел Тема Автор DL S | L
T Фильмы 2019-2020 [DVDrip, WEB-DLRip, HDrip] (DUB, MVO) [ 1.44 GB ] Искупление / Atone [2019 WEB-DLRip] MVO [HDRezka Studio] - ExKinoRay Enigma2010 Скачать
9 | 0

28-11-2019 20:33  

Отключить всю рекламу на сайте

    Дорогой пользователь! Огромная просьба, поблагодарите релизера, оцените раздачу и оставьте свои комментарий, если Вы скачали Искупление через торрент бесплатно! Внесите свою лепту в развитие PiratBit!
    Комментировать посты могут только пользователи прошедшие не сложную регистрацию
    Показать сообщения:    

    Искупление через торрент
    Скачать бесплатно Искупление
    Искупление скачать торрент
    Искупление смотреть онлайн
    Cкачать фильм Искупление бесплатно
    Искупление скачать торрент в хорошем качестве
    Искупление смотреть онлайн бесплатно в хорошем качестве


    Вы не можете начинать темы
    Вы не можете отвечать на сообщения
    Вы не можете редактировать свои сообщения
    Вы не можете удалять свои сообщения
    Вы не можете голосовать в опросах
    Вы не можете прикреплять файлы к сообщениям
    Вы можете скачивать файлы