Ссылка на приватное зеркало нашего сайта всего за 1$. Внимание количество ограничено!!!

2 сезон

iTunes

1 сезон

1

2 сезон

2 сезон

iTunes

1 сезон

RePack

30

Ultimate

ВАЖНО

ИГРА 18+

pack

RePack

MK11
pack

Забери бонус

RePack

jed

!!Акция!!

Alien_Rage

RePack

fifa19

RePack

Assassins Creed: Odyssey

RePack

NEED FOR SPEED™ PAYBACK

4 сезон

9 сезон

Бесстыжие 9 сезон

Все сериалы

все сериалы на PB.wtf

RePack

FAR CRY 5
  

Пустошь / Pustina / Сезон: 1 / Серии: 1-8 из 8 (Элис Неллис, Иван Захариас) [2016, драма, криминал, детектив, HDRip] [DVO] (Good People) pb.wtf

Пустошь через торрент pb.wtf

Размер: 5.19 GB | Добавлен: 1 год 6 мес. назад | Торрент скачан:39 раз
Скачать  

11-05-2019 06:07 Пустошь Скачать торрент  

Пустошь | Pustina

Год выпуска: 2016
Страна: Чехия
Жанр: драма, криминал, детектив
Продолжительность: ~00:55:00

Перевод: Профессиональный (двухголосый закадровый) | Good People

Режиссёр: Элис Неллис, Иван Захариас

В ролях: Зузана Стивинова, Ярослав Душек, Элишка Крженкова, Ян Цина, Ева Голубова, Петра Шпалкова, Мартин Кубачак и др.

Описание: События драматического сериала «Пустошь» происходят в маленьком городке, в шахтах которого находятся огромные запасы угля, вызывающие интерес у польской горнодобывающей компании. Но обогащение одних приводит к проблемам у других. В маленьком городке, где все друг друга знают, происходит целая цепь странных событий, первым из которых становится исчезновение дочери старейшины...



Качество: HDRip
Формат: AVI
Видео: XviD, ~ 1400 kbps, 720x400 (16:9), 25 fps
Аудио 1: MP3, 48,0 КГц, 2 ch, 128 kbps - Rus
Аудио 2: MP3, 48,0 КГц, 2 ch, 128 kbps - Eng
Субтитры: отсутствуют
Общее
Полное имя : G:\Загрузки\Pustina. Season 1 (HDRip l 400p l Good People)\Pustina.S01E01.HDRip.Rus.Cze.GoodPeople.avi
Формат : AVI
Формат/Информация : Audio Video Interleave
Размер файла : 701 Мбайт
Продолжительность : 58 м. 45 с.
Общий поток : 1669 Кбит/сек
Программа кодирования : VirtualDubMod 1.5.10.3 | www.virtualdub-fr.org || (build 2550/release)
Библиотека кодирования : VirtualDubMod build 2550/release

Видео
Идентификатор : 0
Формат : MPEG-4 Visual
Профиль формата : Advanced Simple@L5
Настройки формата : BVOP1 / Custom Matrix
Параметр BVOP формата : 1
Параметр QPel формата : Нет
Параметр GMC формата : Без точки перехода
Параметр матрицы формата : Выборочная
Идентификатор кодека : XVID
Идентификатор кодека/Подсказка : XviD
Продолжительность : 58 м. 45 с.
Битрейт : 1398 Кбит/сек
Ширина : 720 пикселей
Высота : 400 пикселей
Соотношение сторон : 16:9
Частота кадров : 25,000 кадров/сек
Цветовое пространство : YUV
Субдискретизация насыщенности : 4:2:0
Битовая глубина : 8 бит
Тип развёртки : Прогрессивная
Метод сжатия : С потерями
Бит/(Пиксели*Кадры) : 0.194
Размер потока : 588 Мбайт (84%)
Библиотека кодирования : XviD 73

Аудио #1
Идентификатор : 1
Формат : MPEG Audio
Версия формата : Version 1
Профиль формата : Layer 3
Настройки формата : Joint stereo / MS Stereo
Идентификатор кодека : 55
Идентификатор кодека/Подсказка : MP3
Продолжительность : 58 м. 45 с.
Вид битрейта : Постоянный
Битрейт : 128 Кбит/сек
Каналы : 2 канала
Частота : 48,0 КГц
Метод сжатия : С потерями
Размер потока : 53,8 Мбайт (8%)
Выравнивание : Соединение по промежуткам
Продолжительность промежутка : 40 мс. (1,00 видеокадр)
Время предзагрузки промежутка : 504 мс.

Аудио #2
Идентификатор : 2
Формат : MPEG Audio
Версия формата : Version 1
Профиль формата : Layer 3
Настройки формата : Joint stereo / MS Stereo
Идентификатор кодека : 55
Идентификатор кодека/Подсказка : MP3
Продолжительность : 58 м. 45 с.
Вид битрейта : Постоянный
Битрейт : 128 Кбит/сек
Каналы : 2 канала
Частота : 48,0 КГц
Метод сжатия : С потерями
Размер потока : 53,8 Мбайт (8%)
Выравнивание : Соединение по промежуткам
Продолжительность промежутка : 40 мс. (1,00 видеокадр)
Время предзагрузки промежутка : 504 мс.
скриншот  скриншот  скриншот  
pb.wtf



Скачать Пустошь через торрент http://img14.lostpic.net/2019/05/11/929d8996b1525db85b85154b37db350d.jpg Скачать фильм Пустошь через торрент бесплантно в хорошем качестве Описание: События драматического сериала «Пустошь» происходят в маленьком городке, в шахтах которого находятся огромные запасы угля, ... 9.3 10 3
Торрент: Зарегистрирован [2019-05-11 06:07] · скачан: 39 раз
Статус: √ проверено
Размер: 5.19 GB
Как cкачать? Как скачать Пустошь через торрент | qTorrent

28-11-2019 20:33  

Отключить всю рекламу на сайте

    Дорогой пользователь! Огромная просьба, поблагодарите релизера, оцените раздачу и оставьте свои комментарий, если Вы скачали Пустошь через торрент бесплатно! Внесите свою лепту в развитие PiratBit!
    Комментировать посты могут только пользователи прошедшие не сложную регистрацию
    Показать сообщения:    

    Пустошь через торрент
    Скачать бесплатно Пустошь
    Пустошь скачать торрент
    Пустошь смотреть онлайн
    Cкачать фильм Пустошь бесплатно
    Пустошь скачать торрент в хорошем качестве
    Пустошь смотреть онлайн бесплатно в хорошем качестве


    Вы не можете начинать темы
    Вы не можете отвечать на сообщения
    Вы не можете редактировать свои сообщения
    Вы не можете удалять свои сообщения
    Вы не можете голосовать в опросах
    Вы не можете прикреплять файлы к сообщениям
    Вы можете скачивать файлы