Ссылка на приватное зеркало нашего сайта всего за 1$. Внимание количество ограничено!!!

2 сезон

iTunes

1 сезон

1

iTunes

iTunes

iTunes

1 сезон

RePack

30

ИГРА 18+

pack

ВАЖНО

!!Акция!!

Alien_RageХит недели

RePack

MK11
pack

Забери бонус

RePack

jed

!!Акция!!

Alien_Rage

RePack

fifa19

RePack

Assassins Creed: Odyssey

RePack

NEED FOR SPEED™ PAYBACK

4 сезон

9 сезон

Бесстыжие 9 сезон

Все сериалы

все сериалы на PB.wtf

RePack

FAR CRY 5
  

Аквамен / Aquaman (Джеймс Ван) [2018, фантастика, фэнтези, боевик, BDRip - HEVC 1080p 12 bit 60 FPS] Дубляж - [Лицензия] pb.wtf

Аквамен через торрент pb.wtf

Раздают: 3 [ 0 KB/s ]
Размер: 9.4 GB | Добавлен: 1 год 7 мес. назад | Торрент скачан:451 раз
Скачать  

22-03-2019 16:48 Аквамен Скачать торрент  

Аквамен / Aquaman
««Океан зовёт»»


Год выпуска: 2018
Страна: Австралия, США
Жанр: фантастика, фэнтези, боевик, приключения

Продолжительность: 02:23:20
Перевод: Дубляж - [Лицензия]
Субтитры: русские (Full), английские
Режиссер: Джеймс Ван
В ролях:

Джейсон Момоа (Arthur), Эмбер Хёрд (Mera), Уиллем Дефо (Vulko), Патрик Уилсон (King Orm), Николь Кидман (Atlanna), Дольф Лундгрен (King Nereus), Яхья Абдул-Матин II (Manta), Темуэра Моррисон (Tom Curry), Луди Линь (Captain Murk), Майкл Бич (Jesse (Manta's Father)), Рэндолл Парк (Dr. Stephen Shin), Грэм МакТавиш (King Atlan)
Описание:
Действие фильма разворачивается в необъятном и захватывающем подводном мире семи морей, а сюжет знакомит зрителей с историей происхождения получеловека-полуатланта Артура Карри и ключевыми событиями его жизни - теми, что заставят его не только столкнуться с самим собой, но и выяснить, достоин ли он быть тем, кем ему суждено... царем!
Мировая премьера: 26 ноября 2018

Качество: BDRip 1080p Rip by DD2D3
Формат: MKV
Видео: V_MPEGH/ISO/HEVC, 1920x800 (2.40:1), 6574 kbps, 59,940 fps, 0,071 bpp
Аудио №1: русский / AC3 / 5.1 / 48 kHz / 448 kbps / ||
Аудио №2: английский / DTS-HD / 5.1 / 48 kHz / 2363 kbps / 16 bit (Core: 5.1 / 48 kHz / 1509 kbps / 16 bit)
Навигация по главам: есть



Общее
Уникальный идентификатор : 208971407845999445335261527385991961445 (0x9D366DDF56DA650DAA380F8474125B65)
Полное имя : D:\Аквамен - Aquaman (2018) BDRip - HEVC 1080p 12 bit 60 FPS.mkv
Формат : Matroska
Версия формата : Version 4
Размер файла : 9,40 Гбайт
Продолжительность : 2 ч. 23 м.
Режим общего битрейта : Переменный
Общий поток : 9393 Кбит/сек
Название фильма : Rip by DD2D3
Дата кодирования : UTC 2019-03-22 15:57:18
Программа кодирования : mkvmerge v10.0.0 ('To Drown In You') 32bit
Библиотека кодирования : libebml v1.3.4 + libmatroska v1.4.5
Attachments : poster

Видео
Идентификатор : 1
Формат : HEVC
Формат/Информация : High Efficiency Video Coding
Профиль формата : @L4.1@Main
Идентификатор кодека : V_MPEGH/ISO/HEVC
Продолжительность : 2 ч. 23 м.
Битрейт : 6575 Кбит/сек
Ширина : 1920 пикселей
Высота : 800 пикселей
Соотношение сторон : 2,40:1
Режим частоты кадров : Постоянный
Частота кадров : 59,940 (60000/1001) кадров/сек
Цветовое пространство : YUV
Субдискретизация насыщенности : 4:2:0
Битовая глубина : 12 бит
Бит/(Пиксели*Кадры) : 0.071
Размер потока : 6,58 Гбайт (70%)
Библиотека кодирования : x265 2.3+33-0b7d54dbb71a87a0:[Windows][MSVC 1800][64 bit] 12bit: KG7x [x265.ru]
Настройки программы : cpuid=1173503 / frame-threads=2 / numa-pools=4 / wpp / no-pmode / no-pme / no-psnr / no-ssim / log-level=2 / input-csp=1 / input-res=1920x800 / interlace=0 / total-frames=515516 / level-idc=41 / high-tier=1 / uhd-bd=0 / ref=3 / no-allow-non-conformance / no-repeat-headers / annexb / no-aud / no-hrd / info / hash=0 / no-temporal-layers / open-gop / min-keyint=25 / keyint=250 / bframes=4 / b-adapt=2 / b-pyramid / bframe-bias=0 / rc-lookahead=20 / lookahead-slices=5 / scenecut=40 / no-intra-refresh / ctu=64 / min-cu-size=8 / no-rect / no-amp / max-tu-size=32 / tu-inter-depth=1 / tu-intra-depth=1 / limit-tu=0 / rdoq-level=0 / dynamic-rd=0.00 / no-ssim-rd / signhide / no-tskip / nr-intra=0 / nr-inter=0 / no-constrained-intra / strong-intra-smoothing / max-merge=2 / limit-refs=3 / no-limit-modes / me=1 / subme=2 / merange=57 / temporal-mvp / weightp / no-weightb / no-analyze-src-pics / deblock=0:0 / no-sao / no-sao-non-deblock / rd=3 / no-early-skip / no-rskip / no-fast-intra / no-tskip-fast / no-cu-lossless / no-b-intra / rdpenalty=0 / psy-rd=4.00 / psy-rdoq=0.00 / no-rd-refine / analysis-mode=0 / no-lossless / cbqpoffs=0 / crqpoffs=0 / rc=abr / bitrate=6573 / qcomp=0.60 / qpstep=1 / stats-write=0 / stats-read=2 / cplxblur=20.0 / qblur=0.5 / ipratio=1.10 / pbratio=1.00 / aq-mode=0 / aq-strength=0.00 / no-cutree / zone-count=0 / no-strict-cbr / qg-size=64 / rc-grain / qpmax=69 / qpmin=0 / sar=1 / overscan=0 / videoformat=5 / range=0 / colorprim=2 / transfer=2 / colormatrix=2 / chromaloc=0 / display-window=0 / max-cll=0,0 / min-luma=0 / max-luma=4095 / log2-max-poc-lsb=8 / vui-timing-info / vui-hrd-info / slices=1 / opt-qp-pps / opt-ref-list-length-pps / no-multi-pass-opt-rps / scenecut-bias=0.05 / no-opt-cu-delta-qp / no-aq-motion / no-hdr / no-hdr-opt / refine-level=5 / no-limit-sao
Default : Да
Forced : Нет

Аудио #1
Идентификатор : 2
Формат : AC-3
Формат/Информация : Audio Coding 3
Коммерческое название : Dolby Digital
Идентификатор кодека : A_AC3
Продолжительность : 2 ч. 23 м.
Вид битрейта : Постоянный
Битрейт : 448 Кбит/сек
Каналы : 6 каналов
Channel layout : L R C LFE Ls Rs
Частота : 48,0 КГц
Частота кадров : 31,250 кадров/сек (1536 SPF)
Битовая глубина : 16 бит
Метод сжатия : С потерями
Размер потока : 459 Мбайт (5%)
Заголовок : Dub [License]
Язык : Russian
ServiceKind/String : Complete Main
Default : Да
Forced : Да

Аудио #2
Идентификатор : 3
Формат : DTS XLL
Формат/Информация : Digital Theater Systems
Коммерческое название : DTS-HD Master Audio
Идентификатор кодека : A_DTS
Продолжительность : 2 ч. 23 м.
Вид битрейта : Переменный
Битрейт : 2363 Кбит/сек
Каналы : 6 каналов
Channel layout : C L R Ls Rs LFE
Частота : 48,0 КГц
Частота кадров : 93,750 кадра/сек (512 SPF)
Битовая глубина : 16 бит
Метод сжатия : Без потерь
Размер потока : 2,37 Гбайт (25%)
Заголовок : Original
Язык : English
Default : Нет
Forced : Нет

Текст #1
Идентификатор : 4
Формат : UTF-8
Идентификатор кодека : S_TEXT/UTF8
Идентификатор кодека/Информация : UTF-8 Plain Text
Продолжительность : 2 ч. 22 м.
Битрейт : 55 бит/сек
ElementCount : 1119
Размер потока : 58,0 Кбайт (0%)
Заголовок : Full
Язык : Russian
Default : Нет
Forced : Нет

Текст #2
Идентификатор : 5
Формат : UTF-8
Идентификатор кодека : S_TEXT/UTF8
Идентификатор кодека/Информация : UTF-8 Plain Text
Продолжительность : 2 ч. 14 м.
Битрейт : 38 бит/сек
ElementCount : 1132
Размер потока : 37,5 Кбайт (0%)
Язык : English
Default : Нет
Forced : Нет

Меню
00:00:00.000 : en:Chapter 01
00:11:09.294 : en:Chapter 02
00:22:11.622 : en:Chapter 03
00:30:11.018 : en:Chapter 04
00:40:28.718 : en:Chapter 05
00:50:24.647 : en:Chapter 06
01:01:15.755 : en:Chapter 07
01:08:57.091 : en:Chapter 08
01:21:41.271 : en:Chapter 09
01:34:50.435 : en:Chapter 10
01:39:37.430 : en:Chapter 11
01:49:32.816 : en:Chapter 12
02:01:36.539 : en:Chapter 13
02:10:19.895 : en:Chapter 14
скриншот  скриншот  скриншот  скриншот  

© Оформление by DD2D3 pb.wtf



Скачать Аквамен через торрент http://funkyimg.com/i/2SAGj.jpg Скачать фильм Аквамен через торрент бесплантно в хорошем качестве Описание: Действие фильма разворачивается в необъятном и захватывающем подводном мире семи морей, а сюжет знакомит зрителей с историей ... 9.6 10 20
Info! Золотая раздача, скачанное не засчитывается.
Торрент: Зарегистрирован [2019-03-22 16:48] · скачан: 451 раз
Статус: √ проверено
Размер: 9.4 GB
Как cкачать? Как скачать Аквамен через торрент | qTorrent

% Раздел Тема Автор DL S | L
3D Фильмы [ 7.47 GB ] Аквамен в 3D / Aquaman in 3D [2018 BDRip 1080p ] Анаглиф slaventi-69 Скачать
1 | 0
Фильмы [HD 720p, 1080p] (Хороший звук DUB, MVO) [ 9.48 GB ] Аквамен / Aquaman [2018 BDRip-HEVC 1080p ] [IMAX Edition] DUB [] bober100 Скачать
3 | 0
Фильмы (WEB-DL 720p, 1080p) [ 6.43 GB ] Аквамен / Aquaman [2018 WEB-DL 1080p] [IMAX Edition] MVO [HDRezka Studio] +DUB bober100 Скачать
9 | 0
3D Фильмы [ 16.94 GB ] Аквамен в 3Д / Aquaman 3D [2018 BDRip 1080p] DUB + MVO [HDRezka Studio] Half SideBySide sheker187 Скачать
2 | 0
Ultra HD (UHD: 2K, 4K, 8K) — видео сверхвысокой чёткости [ 64.33 GB ] Аквамен / Aquaman [2018 UHD BDRemux 2160p] [IMAX Edition] DUB [Dolby Vision] sheker187 Скачать
1 | 1
3D Фильмы [ 25.64 GB ] Аквамен в 3Д / Aquaman 3D [2018 BDRip 1080p] OverUnder / Вертикальная стереопара [ ] serega768 Скачать
1 | 0
Фильмы 2018 [DVDrip, WEB-DLRip, HDrip] (DUB, MVO) [ 2.18 GB ] Аквамен / Aquaman [2018 BDRip] - [] Twi7ter Скачать
7 | 0

28-11-2019 20:33  

Отключить всю рекламу на сайте

    Дорогой пользователь! Огромная просьба, поблагодарите релизера, оцените раздачу и оставьте свои комментарий, если Вы скачали Аквамен через торрент бесплатно! Внесите свою лепту в развитие PiratBit!
    Комментировать посты могут только пользователи прошедшие не сложную регистрацию
    Показать сообщения:    

    Аквамен через торрент
    Скачать бесплатно Аквамен
    Аквамен скачать торрент
    Аквамен смотреть онлайн
    Cкачать фильм Аквамен бесплатно
    Аквамен скачать торрент в хорошем качестве
    Аквамен смотреть онлайн бесплатно в хорошем качестве


    Вы не можете начинать темы
    Вы не можете отвечать на сообщения
    Вы не можете редактировать свои сообщения
    Вы не можете удалять свои сообщения
    Вы не можете голосовать в опросах
    Вы не можете прикреплять файлы к сообщениям
    Вы можете скачивать файлы