Мега распродажа FORZA HORIZON 4 ULTIMATE+ВСЕ DLC+ОНЛАЙН всего за 499р. 349 руб. (супер цена). Внимание количество ограничено!!!

iTunes

1+1

iTunes

мы

iTunes

1

iTunes

Чернобыль

1 сезон

Ральф против интернета

Лицензия

ПШазам

Лицензия

Игра престолов

Лицензия

30
pack

ВАЖНО

!!Акция!!

Alien_RageХит недели

RePack

Resident Evil 21

ИГРА 18+

pack

RePack

Metro:Exodus

!!Акция!!

Alien_Rage

RePack

fifa19

RePack

Assassins Creed: Odyssey

RePack

NEED FOR SPEED™ PAYBACK

3 сезон

9 сезон

Бесстыжие 9 сезон

Все сериалы

все сериалы на PB.wtf

RePack

FAR CRY 5
Ребята, катастрофически не хватает 7730р. для оплаты серверов за ИЮЛЬ (всвязи с блокировками трафик упал в 3 раза), 1-2р., выручайте.
  

Чернобыль / Chernobyl / Сезон: 1 / Серии: 1-5 из 5 (Йохан Ренк / Johan Renck) [2019, Драма, история, WEB-DLRip] [MVO] (AlexFilm) pb.wtf

Чернобыль через торрент pb.wtf

Раздают: 44 [ 3 KB/s ] Качают: 5 [ 0 KB/s ]
Размер: 4.58 GB | Добавлен: 2 мес. 12 д. назад | Торрент скачан:1296 раз
Скачать  

11-05-2019 06:13 Чернобыль Скачать торрент  

Чернобыль | Chernobyl
Год выпуска: 2019
Страна: Великобритания, США
Жанр: Драма, история
Продолжительность: ~01:00:00
Перевод: Профессиональный (многоголосый закадровый) | AlexFilm
Режиссёр: Йохан Ренк / Johan Renck
В ролях: Джаред Харрис, Стеллан Скарсгард, Эмили Уотсон, Джошуа Лис, Росс Армстронг, Фил Барантини, Джесси Бакли, Джеймс Космо, Дэниэл Стоунер, Карл Дейвис
Описание: История об аварии на Чернобыльской АЭС в 1986 году, эвакуации жителей Припяти и ликвидации последствий. «Чернобыль» драматизирует истинную историю одной из худших техногенных катастроф в истории и рассказывает о храбрых мужчинах и женщинах, которые пожертвовали собой, чтобы спасти Европу от невообразимой катастрофы.
Перевод: Константин Кривоногов
Монтаж и сведение звука: Михаил Шорыгин

Роли озвучивали:
Екатерина Кабашова
Пётр Гланц Иващенко
Владимир Курдов
Михаил Цареградский
Кирилл Патрино
Михаил Федосеев



Качество: WEB-DLRip
Формат: AVI
Видео: XviD, 704x352 (2,000), 23.976 кадров/сек, 2000 Кбит/сек
Аудио Rus: AC3, 48,0 kHz, 6 ch, 384 Кбит/сек | AlexFilm
Аудио Eng: AC3, 48,0 kHz, 6 ch, 384 Кбит/сек
Субтитры: Отсутствуют
Реклама: Отсутствует
• Спасибо Keedof за исходник

Общее
Полное имя : E:\Chernobyl (Season 1) WEB-DLRip 400p AlexFilm\Chernobyl.S01E01.WEB-DLRip.RGzsRutracker.[Wentworth_Miller].avi
Формат : AVI
Формат/Информация : Audio Video Interleave
Размер файла : 1,17 Гбайт
Продолжительность : 1 ч. 0 м.
Общий поток : 2782 Кбит/сек
Название фильма : Chernobyl 01x01 (1:23:45) - Release by Wentworth_Miller
Программа кодирования : VirtualDubMod 1.5.10.3 | www.virtualdub-fr.org || (build 2550/release)
Формат оригинала/Имя : TV-Serie

Видео
Идентификатор : 0
Формат : MPEG-4 Visual
Профиль формата : Advanced Simple@L5
Настройки формата : BVOP1
Параметр BVOP формата : 1
Параметр QPel формата : Нет
Параметр GMC формата : Без точки перехода
Параметр матрицы формата : Default (MPEG)
Идентификатор кодека : XVID
Идентификатор кодека/Подсказка : XviD
Продолжительность : 1 ч. 0 м.
Битрейт : 2000 Кбит/сек
Ширина : 704 пикселя
Высота : 352 пикселя
Соотношение сторон : 2,000
Частота кадров : 23,976 (24000/1001) кадра/сек
Цветовое пространство : YUV
Субдискретизация насыщенности : 4:2:0
Битовая глубина : 8 бит
Тип развёртки : Прогрессивная
Метод сжатия : С потерями
Бит/(Пиксели*Кадры) : 0.337
Размер потока : 861 Мбайт (72%)
Библиотека кодирования : XviD 67

Аудио #1
Идентификатор : 1
Формат : AC-3
Формат/Информация : Audio Coding 3
Коммерческое название : Dolby Digital
Идентификатор кодека : 2000
Продолжительность : 1 ч. 0 м.
Вид битрейта : Постоянный
Битрейт : 384 Кбит/сек
Каналы : 6 каналов
ChannelLayout : L R C LFE Ls Rs
Частота : 48,0 КГц
Частота кадров : 31,250 кадров/сек (1536 SPF)
Битовая глубина : 16 бит
Метод сжатия : С потерями
Размер потока : 165 Мбайт (14%)
Выравнивание : Разделение по промежуткам
Продолжительность промежутка : 42 мс. (1,00 видеокадр)
Время предзагрузки промежутка : 500 мс.
ServiceKind/String : Complete Main

Аудио #2
Идентификатор : 2
Формат : AC-3
Формат/Информация : Audio Coding 3
Коммерческое название : Dolby Digital
Идентификатор кодека : 2000
Продолжительность : 1 ч. 0 м.
Вид битрейта : Постоянный
Битрейт : 384 Кбит/сек
Каналы : 6 каналов
ChannelLayout : L R C LFE Ls Rs
Частота : 48,0 КГц
Частота кадров : 31,250 кадров/сек (1536 SPF)
Битовая глубина : 16 бит
Метод сжатия : С потерями
Размер потока : 165 Мбайт (14%)
Выравнивание : Разделение по промежуткам
Продолжительность промежутка : 42 мс. (1,00 видеокадр)
Время предзагрузки промежутка : 500 мс.
ServiceKind/String : Complete Main

скриншот  скриншот  скриншот  

Внимание! Раздача ведётся путём добавления новых серий; при каждом добавлении создаётся новый торрент. Чтобы начать докачку новой серии, пользователям необходимо сделать следующее:
(1) остановить скачивание,
(2) удалить старый торрент у себя из клиента (старые серии удалять не надо),
(3) скачать новый торрент и запустить его у себя в клиенте вместо старого, при этом указать клиенту путь в старую папку куда и должно происходить скачивание новых серий.

Ваш клиент при этом должен произвести хеширование (проверку) старой папки (если не производит сам - помогите ему сделать это), и будет докачивать только те серии которых у вас ещё нет. Старые серии при этом не удаляются, а продолжают раздаваться!

Eсли вы уже удалили старые серии, то предотвратить повторную закачку старых серий можно, отжав галочку в соответствующих местах при запуске нового торрента. По возможности, желательно не удалять старые серии как можно дольше чтобы релизёр не столько продолжал раздавать старые серии, а смог сконцентрироваться на новых.

pb.wtf



Скачать Чернобыль через торрент https://i110.fastpic.ru/big/2019/0509/fe/bcc6f1399ee3725591ff8430e56d26fe.jpg Скачать фильм Чернобыль через торрент бесплантно в хорошем качестве Описание: История об аварии на Чернобыльской АЭС в 1986 году, эвакуации жителей Припяти и ликвидации последствий. «Чернобыль» драматизирует ... 9.2 10 29
Торрент: Зарегистрирован [2019-06-07 07:39] · скачан: 1 296 раз
Статус: √ проверено
Размер: 4.58 GB
Как cкачать? Как скачать Чернобыль через торрент | qTorrent

% Раздел Тема Автор DL S | L
Зарубежные сериалы [ 61.27 GB ] Чернобыль / Chernobyl / Сезон: 1 / Серии: 1-5 из 5 [2019 история BDRemux 1080i] 2xMVO [Amedia AlexFilm] bober100 Скачать
2 | 1
Зарубежные сериалы [ 23.29 GB ] Чернобыль / Chernobyl / Сезон: 1 / Серии: 1-5 из 5 [2019 история WEB-DL 1080p] [MVO] killermax2013 Скачать
50 | 5
Зарубежные сериалы [ 6.42 GB ] Чернобыль / Chernobyl / Сезон: 1 / Серии: 1-5 из 5 [2019 история WEB-DLRip] MVO [Amedia] Twi7ter Скачать
129 | 29
Зарубежные сериалы [ 23.2 GB ] Чернобыль / Chernobyl / Сезон: 1 / Серии: 1-5 из 5 [2019 история WEB-DL 1080p] [MVO] killermax2013 Скачать
28 | 4
Зарубежные сериалы [ 13.07 GB ] Чернобыль / Chernobyl / Сезон: 1 / Серии: 1-5 из 5 [2019 история WEB-DL 720p] [MVO] killermax2013 Скачать
26 | 1
Зарубежные сериалы [ 4.21 GB ] Чернобыль / Chernobyl / Сезон: 1 / Серии: 1-5 из 5 [2019 история WEB-DLRip] MVO [Amedia] bober100 Скачать
15 | 7
Зарубежные сериалы [ 5.97 GB ] Чернобыль / Chernobyl / Сезон: 1 / Серии: 1-5 из 5 [2019 история WEB-DLRip-AVC] MVO [Amedia] bober100 Скачать
10 | 2


>> Регистрируемся здесь <<






Отзывы и комментарии о схеме читаем и пишем здесь: ---> Отзывы и комментарии о схеме

Новые благодарочки в телеграм довольных пользователей:
скриншот   скриншот   скриншот   скриншот   скриншот

19-06-2019 01:33 Чернобыль Скачать торрент  

А здесь есть реклама 1 Х бет?
Мне бы без рекламы, а во всех других она есть,
хотя пишут что без рекламы.......pb.wtf



    Дорогой пользователь! Огромная просьба, поблагодарите релизера, оцените раздачу и оставьте свои комментарий, если Вы скачали Чернобыль через торрент бесплатно! Внесите свою лепту в развитие PiratBit!
    Комментировать посты могут только пользователи прошедшие не сложную регистрацию
    Показать сообщения:    

    Чернобыль через торрент
    Скачать бесплатно Чернобыль
    Чернобыль скачать торрент
    Чернобыль смотреть онлайн
    Cкачать фильм Чернобыль бесплатно
    Чернобыль скачать торрент в хорошем качестве
    Чернобыль смотреть онлайн бесплатно в хорошем качестве


    Вы не можете начинать темы
    Вы не можете отвечать на сообщения
    Вы не можете редактировать свои сообщения
    Вы не можете удалять свои сообщения
    Вы не можете голосовать в опросах
    Вы не можете прикреплять файлы к сообщениям
    Вы можете скачивать файлы