Ссылка на приватное зеркало нашего сайта всего за 1$. Внимание количество ограничено!!!

2 сезон

iTunes

1 сезон

1

iTunes

iTunes

iTunes

1 сезон

RePack

30

ИГРА 18+

pack

ВАЖНО

!!Акция!!

Alien_RageХит недели

RePack

MK11
pack

Забери бонус

RePack

jed

!!Акция!!

Alien_Rage

RePack

fifa19

RePack

Assassins Creed: Odyssey

RePack

NEED FOR SPEED™ PAYBACK

4 сезон

9 сезон

Бесстыжие 9 сезон

Все сериалы

все сериалы на PB.wtf

RePack

FAR CRY 5
  

Ни шагу назад / Серии: 1-6 из 6 (Дмитрий Сорокин, Георгий Фероренко) [2019 г., военный, драма, WEB-DLRip] pb.wtf

Ни шагу назад через торрент pb.wtf

Размер: 3.76 GB | Добавлен: 1 год 5 мес. назад | Торрент скачан:369 раз
Скачать  

11-05-2019 10:44 Ни шагу назад Скачать торрент  

Ни шагу Назад!
Год выпуска: 2019

Страна: Украина

Жанр: Военный, драма

Продолжительность: ~ 00:48:00 серия

Режиссер: Дмитрий Сорокин, Георгий Фероренко

В ролях: Валентина Попова, Гела Месхи, Мария Шукшина, Фёдор Гуринец, Анастасия Зюркалова, Шорена Шония, Тамара Миронова, Себастьян Антон, Алена Медведева, Марина Поддубная, Светлана Косолапова, Инна Коляда, Дарья Рыбак, Елизавета Фалей, Анатолий Голуб, Дмитрий Пустильник, Сергей Бережко

Описание: Главная героиня – Тошка Лыткина – наивная деревенская девочка, которая искренне любила всех без исключения людей. Во время вражеского авианалета у нее на глазах погибла вся деревня, в том числе – ее мать и младший брат. Девочка чудом выжила, но осталась круглой сиротой: ее отца убили на фронте в первые дни войны. После этой трагедии жизнерадостная простушка Тошка научилась ненавидеть. Она решила пойти на войну, чтобы убить Гитлера и отомстить за родных. Но суровый майор по фамилии Рай посчитал 16-летнюю девушку слишком юной, чтобы отправлять на фронт.
Доп. информация: Без рекламы и "всплывающих" надписей
Качество: WEB-DLRip
Формат: AVI
Видео кодек: XviD
Аудио кодек: AC3
Видео: XviD, ~ 1600 Кбит/с, 720x400
Аудио#1: Русский, AC3, 2 ch, 192 Кбит/с

Видео
Идентификатор : 0
Формат : MPEG-4 Visual
Профиль формата : Advanced Simple@L5
Настройки формата : BVOP1 / Custom Matrix
Параметр BVOP формата : 1
Параметр QPel формата : Нет
Параметр GMC формата : Без точки перехода
Параметр матрицы формата : Выборочная
Идентификатор кодека : XVID
Идентификатор кодека/Подсказка : XviD
Продолжительность : 48 м. 7 с.
Битрейт : 1600 Кбит/сек
Ширина : 720 пикселей
Высота : 400 пикселей
Соотношение сторон : 16:9
Частота кадров : 25,000 кадров/сек
Цветовое пространство : YUV
Субдискретизация насыщенности : 4:2:0
Битовая глубина : 8 бит
Тип развёртки : Прогрессивная
Метод сжатия : С потерями
Бит/(Пиксели*Кадры) : 0.222
Размер потока : 551 Мбайт (89%)
Библиотека кодирования : XviD 73

Аудио
Идентификатор : 1
Формат : AC-3
Формат/Информация : Audio Coding 3
Коммерческое название : Dolby Digital
Идентификатор кодека : 2000
Продолжительность : 48 м. 7 с.
Вид битрейта : Постоянный
Битрейт : 192 Кбит/сек
Каналы : 2 канала
Channel layout : L R
Частота : 48,0 КГц
Частота кадров : 31,250 кадров/сек (1536 SPF)
Битовая глубина : 16 бит
Метод сжатия : С потерями
Размер потока : 66,1 Мбайт (11%)
Выравнивание : Разделение по промежуткам
Продолжительность промежутка : 40 мс. (1,00 видеокадр)
Время предзагрузки промежутка : 500 мс.
ServiceKind/String : Complete Main

скриншот   скриншот   скриншот   скриншот   скриншот  
pb.wtf



Скачать Ни шагу назад через торрент http://pic1.kartinco.top/images/12/j2csv.jpg Скачать фильм Ни шагу назад через торрент бесплантно в хорошем качестве Описание: Главная героиня – Тошка Лыткина – наивная деревенская девочка, которая искренне любила всех без исключения людей. Во время ... 9.5 10 10
Торрент: Зарегистрирован [2019-05-11 10:44] · скачан: 369 раз
Статус: √ проверено
Размер: 3.76 GB
Как cкачать? Как скачать Ни шагу назад через торрент | qTorrent

% Раздел Тема Автор DL S | L
Наши сериалы [ 3.78 GB ] Ни шагу назад. На линии фронта / Сезон: 2 / Серии: 1-6 из 6 [2020 Военный WEB-DLRip] bober100 Скачать
2 | 0
Наши сериалы [ 3.75 GB ] Ни шагу Назад! / Сезон: 1 / Серии: 1-6 из 6 [2019 Военный WEB-DLRip-AVC] bober100 Скачать
3 | 0
Наши сериалы [ 3.72 GB ] Ни шагу назад / Серии: 1-6 из 6 [2019 военный SATRip-AVC] aleksan55 Скачать
1 | 0

28-11-2019 20:33  

Отключить всю рекламу на сайте

    Дорогой пользователь! Огромная просьба, поблагодарите релизера, оцените раздачу и оставьте свои комментарий, если Вы скачали Ни шагу назад через торрент бесплатно! Внесите свою лепту в развитие PiratBit!
    Комментировать посты могут только пользователи прошедшие не сложную регистрацию
    Показать сообщения:    

    Ни шагу назад через торрент
    Скачать бесплатно Ни шагу назад
    Ни шагу назад скачать торрент
    Ни шагу назад смотреть онлайн
    Cкачать фильм Ни шагу назад бесплатно
    Ни шагу назад скачать торрент в хорошем качестве
    Ни шагу назад смотреть онлайн бесплатно в хорошем качестве


    Вы не можете начинать темы
    Вы не можете отвечать на сообщения
    Вы не можете редактировать свои сообщения
    Вы не можете удалять свои сообщения
    Вы не можете голосовать в опросах
    Вы не можете прикреплять файлы к сообщениям
    Вы можете скачивать файлы