Наша группа ВК в очередной раз забанена мы уходим в Телеграм, присоединяйтесь!!!

Лицензия

30

iTunes

мы

iTunes

1

1 сезон

Чернобыль

iTunes

1+1

iTunes

Закатать в асфальт

8 сезон

Игра престолов

1 сезон

Ральф против интернета

ИГРА 18+

pack

ВАЖНО

!!Акция!!

Alien_RageХит недели

RePack

Resident Evil 21
pack

RePack

Metro:Exodus

!!Акция!!

Alien_Rage

RePack

fifa19

RePack

Assassins Creed: Odyssey

RePack

NEED FOR SPEED™ PAYBACK

3 сезон

9 сезон

Бесстыжие 9 сезон

Все сериалы

все сериалы на PB.wtf

RePack

FAR CRY 5
Ребята, катастрофически не хватает 2730р. для оплаты серверов за АПРЕЛЬ (всвязи с блокировками трафик упал в 3 раза), 1-2р., выручайте.
  

Останься со мной / The Keeping Hours (Карен Монкрифф) [2017, драма, мелодрама, DVDRip-AVC] DUB [Лицензия R5] - ExKinoRay pb.wtf

Останься со мной через торрент pb.wtf

Раздают: 15 [ 0 KB/s ]
Размер: 1.46 GB | Добавлен: 12 д. назад | Торрент скачан:91 раз
Скачать  

11-05-2019 12:36 Останься со мной Скачать торрент  

Информация о фильме
Название: Останься со мной
Оригинальное название: The Keeping Hours
Год выпуска: 2017
Жанр: Драма, мелодрама, фэнтези
Режиссер: Карен Монкрифф
В ролях: Ли Пейс, Кэрри Кун, Эми Смарт, Молли Хэйгэн, Ана Ортис, Анна Диоп, Кристина Видаль, Рэй Бэйкер, Клифф Чемберлен, Джейн Дэйли

Описание: 7 лет назад супруги Марк и Элизабет потеряли в автоаварии 5-летнего сына Джейкоба. Горе разрушило семью — Марк ушёл в алкоголь и работу, Элизабет снова вышла замуж. Решив навсегда избавиться от болезненных воспоминаний, Марк начинает готовить их старый дом к продаже и приезжает туда, чтобы разобрать вещи. Но прошлое внезапно обрушивается на мужчину с новой силой — в доме материализуется призрак Джейкоба.

rating

Страна: США
Студия: Blumhouse Productions
Продолжительность: 01:31:00
Перевод: Дублированный | Лицензия R5 | (НД Плэй)
Субтитры: Русские (форс., полные), английские

Формат: MKV
Качество: DVDRip-AVC
Видео: MPEG-4 AVC, 720x428@1024x428 (2.40:1), 25.000 fps, 1520 Kbps, 0.197 bit/pixel
Аудио #01: 48 kHz, AC3, 5.1, 384 Kbps | DUB | RUS |
Аудио #02: 48 kHz, AC3, 5.1, 384 Kbps | Оригинал | ENG |
General
Unique ID : 249559415105636592464485820335226199942 (0xBBBF6521B4DFC8C6BD05E1B275119F86)
Complete name : F:\Останься.со.мной.2017.DVDRip.AVC.ExKinoRay.mkv
Format : Matroska
Format version : Version 2
File size : 1.46 GiB
Duration : 1 h 31 min
Overall bit rate : 2 289 kb/s
Movie name : Останься со мной 2017 from ExKinoRay
Encoded date : UTC 2019-05-11 02:51:48
Writing application : mkvmerge v5.6.0 ('Kenya Kane') built on May 27 2012 16:44:04
Writing library : libebml v1.2.3 + libmatroska v1.3.0

Video
ID : 1
Format : AVC
Format/Info : Advanced Video Codec
Format profile : High@L4.1
Format settings, CABAC : Yes
Format settings, ReFrames : 12 frames
Codec ID : V_MPEG4/ISO/AVC
Duration : 1 h 31 min
Bit rate : 1 520 kb/s
Width : 720 pixels
Height : 428 pixels
Display aspect ratio : 2.40:1
Frame rate mode : Constant
Frame rate : 25.000 FPS
Color space : YUV
Chroma subsampling : 4:2:0
Bit depth : 8 bits
Scan type : Progressive
Bits/(Pixel*Frame) : 0.197
Stream size : 961 MiB (64%)
Title : Enigma
Writing library : x264 core 152 r2851 ba24899
Encoding settings : cabac=1 / ref=12 / deblock=1:-2:-2 / analyse=0x3:0x113 / me=umh / subme=10 / psy=1 / psy_rd=1.05:0.10 / mixed_ref=1 / me_range=32 / chroma_me=1 / trellis=2 / 8x8dct=1 / cqm=0 / deadzone=21,11 / fast_pskip=0 / chroma_qp_offset=-3 / threads=12 / lookahead_threads=3 / sliced_threads=0 / nr=0 / decimate=0 / interlaced=0 / bluray_compat=0 / constrained_intra=0 / bframes=10 / b_pyramid=2 / b_adapt=2 / b_bias=0 / direct=3 / weightb=1 / open_gop=0 / weightp=2 / keyint=250 / keyint_min=25 / scenecut=40 / intra_refresh=0 / rc=2pass / mbtree=0 / bitrate=1520 / ratetol=1.0 / qcomp=0.60 / qpmin=0 / qpmax=51 / qpstep=4 / cplxblur=20.0 / qblur=0.5 / ip_ratio=1.30 / pb_ratio=1.20 / aq=1:1.00
Language : English
Default : Yes
Forced : No
Color range : Limited
Color primaries : BT.601 PAL
Transfer characteristics : BT.470 System B, BT.470 System G
Matrix coefficients : BT.601

Audio #1
ID : 2
Format : AC-3
Format/Info : Audio Coding 3
Mode extension : CM (complete main)
Format settings, Endianness : Big
Codec ID : A_AC3
Duration : 1 h 31 min
Bit rate mode : Constant
Bit rate : 384 kb/s
Channel(s) : 6 channels
Channel positions : Front: L C R, Side: L R, LFE
Sampling rate : 48.0 kHz
Frame rate : 31.250 FPS (1536 spf)
Compression mode : Lossy
Stream size : 250 MiB (17%)
Title : Dub R5
Language : Russian
Default : Yes
Forced : No

Audio #2
ID : 3
Format : AC-3
Format/Info : Audio Coding 3
Mode extension : CM (complete main)
Format settings, Endianness : Big
Codec ID : A_AC3
Duration : 1 h 31 min
Bit rate mode : Constant
Bit rate : 384 kb/s
Channel(s) : 6 channels
Channel positions : Front: L C R, Side: L R, LFE
Sampling rate : 48.0 kHz
Frame rate : 31.250 FPS (1536 spf)
Compression mode : Lossy
Stream size : 250 MiB (17%)
Language : English
Default : No
Forced : No

Text #1
ID : 4
Format : UTF-8
Codec ID : S_TEXT/UTF8
Codec ID/Info : UTF-8 Plain Text
Title : Forced
Language : Russian
Default : Yes
Forced : No

Text #2
ID : 5
Format : UTF-8
Codec ID : S_TEXT/UTF8
Codec ID/Info : UTF-8 Plain Text
Title : Full
Language : Russian
Default : No
Forced : No

Text #3
ID : 6
Format : UTF-8
Codec ID : S_TEXT/UTF8
Codec ID/Info : UTF-8 Plain Text
Language : English
Default : No
Forced : No

Menu
00:00:00.000 : :Chapter 01
00:02:51.720 : :Chapter 02
00:07:02.440 : :Chapter 03
00:11:00.400 : :Chapter 04
00:14:03.440 : :Chapter 05
00:18:55.720 : :Chapter 06
00:23:51.040 : :Chapter 07
00:29:34.440 : :Chapter 08
00:35:13.800 : :Chapter 09
00:40:22.080 : :Chapter 10
00:44:55.640 : :Chapter 11
00:47:15.520 : :Chapter 12
00:51:32.200 : :Chapter 13
00:56:56.840 : :Chapter 14
01:01:42.480 : :Chapter 15
01:07:35.920 : :Chapter 16
01:10:58.480 : :Chapter 17
01:13:55.480 : :Chapter 18
01:19:00.560 : :Chapter 19
01:25:48.520 : :Chapter 20
01:31:00.200 : :Chapter 21
Релиз от:

Автор релиза: pb.wtf



Скачать Останься со мной через торрент https://b.radikal.ru/b20/1812/9e/602c864a3b18.png Скачать фильм Останься со мной через торрент бесплантно в хорошем качестве Описание: 7 лет назад супруги Марк и Элизабет потеряли в автоаварии 5-летнего сына Джейкоба. Горе разрушило семью — Марк ушёл в алкоголь ... 9.8 10 6
Info! Золотая раздача, скачанное не засчитывается.
Торрент: Зарегистрирован [2019-05-11 12:36] · скачан: 91 раз
Статус: √ проверено
Размер: 1.46 GB
Как cкачать? Как скачать Останься со мной через торрент | qTorrent

% Раздел Тема Автор DL S | L
Фильмы (WEB-DL 720p, 1080p) [ 3.17 GB ] Останься со мной / The Keeping Hours [2017 WEB-DL 720p] DUB [ R5] - ExKinoRay Enigma2010 Скачать
43 | 1


>> Регистрируемся здесь <<






Отзывы и комментарии о схеме читаем и пишем здесь: ---> Отзывы и комментарии о схеме

Новые благодарочки в телеграм довольных пользователей:
скриншот   скриншот   скриншот   скриншот   скриншот
    Дорогой пользователь! Огромная просьба, поблагодарите релизера, оцените раздачу и оставьте свои комментарий, если Вы скачали Останься со мной через торрент бесплатно! Внесите свою лепту в развитие PiratBit!
    Комментировать посты могут только пользователи прошедшие не сложную регистрацию
    Показать сообщения:    

    Останься со мной через торрент
    Скачать бесплатно Останься со мной
    Останься со мной скачать торрент
    Останься со мной смотреть онлайн
    Cкачать фильм Останься со мной бесплатно
    Останься со мной скачать торрент в хорошем качестве
    Останься со мной смотреть онлайн бесплатно в хорошем качестве


    Вы не можете начинать темы
    Вы не можете отвечать на сообщения
    Вы не можете редактировать свои сообщения
    Вы не можете удалять свои сообщения
    Вы не можете голосовать в опросах
    Вы не можете прикреплять файлы к сообщениям
    Вы можете скачивать файлы