Мега распродажа FORZA HORIZON 4 ULTIMATE+ВСЕ DLC+ОНЛАЙН всего за 499р. 349 руб. (супер цена). Внимание количество ограничено!!!

Лицензия

30

iTunes

мы

iTunes

1

1 сезон

Чернобыль

1 сезон

Ральф против интернета

MVO

Покемон. Детектив Пикачу

8 сезон

Игра престолов

iTunes

1+1

ИГРА 18+

pack

ВАЖНО

!!Акция!!

Alien_RageХит недели

RePack

Resident Evil 21
pack

RePack

Metro:Exodus

!!Акция!!

Alien_Rage

RePack

fifa19

RePack

Assassins Creed: Odyssey

RePack

NEED FOR SPEED™ PAYBACK

3 сезон

9 сезон

Бесстыжие 9 сезон

Все сериалы

все сериалы на PB.wtf

RePack

FAR CRY 5
Ребята, катастрофически не хватает 2730р. для оплаты серверов за МАЙ (всвязи с блокировками трафик упал в 3 раза), 1-2р., выручайте.
  

Останься со мной / The Keeping Hours (Карен Монкрифф) [2017, драма, мелодрама, WEB-DL 720p] DUB [Лицензия R5] - ExKinoRay pb.wtf

Останься со мной через торрент pb.wtf

Раздают: 28 [ 0 KB/s ]
Размер: 3.17 GB | Добавлен: 1 мес. 6 д. назад | Торрент скачан:102 раза
Скачать  

11-05-2019 13:02 Останься со мной Скачать торрент  

Информация о фильме
Название: Останься со мной
Оригинальное название: The Keeping Hours
Год выпуска: 2017
Жанр: Драма, мелодрама, фэнтези
Режиссер: Карен Монкрифф
В ролях: Ли Пейс, Кэрри Кун, Эми Смарт, Молли Хэйгэн, Ана Ортис, Анна Диоп, Кристина Видаль, Рэй Бэйкер, Клифф Чемберлен, Джейн Дэйли

Описание: 7 лет назад супруги Марк и Элизабет потеряли в автоаварии 5-летнего сына Джейкоба. Горе разрушило семью — Марк ушёл в алкоголь и работу, Элизабет снова вышла замуж. Решив навсегда избавиться от болезненных воспоминаний, Марк начинает готовить их старый дом к продаже и приезжает туда, чтобы разобрать вещи. Но прошлое внезапно обрушивается на мужчину с новой силой — в доме материализуется призрак Джейкоба.

rating

Страна: США
Студия: Blumhouse Productions
Продолжительность: 01:34:53
Перевод: Дублированный | Лицензия R5 | (НД Плэй)
Субтитры: Русские (полные), английские

Формат: MKV
Качество: WEB-DL 720p
Видео: MPEG-4 AVC, 1280x530 (2.40:1), 23.976 fps, 3924 Kbps, 0.241 bit/pixel
Аудио #01: 48 kHz, AC3, 5.1, 384 Kbps | DUB | RUS |
Аудио #02: 48 kHz, AC3, 5.1, 384 Kbps | Оригинал | ENG |
General
Unique ID : 214682143250023717942144231794539249058 (0xA18246DDBE77745CB9927101CDEC3DA2)
Complete name : F:\The.Keeping.Hours.2017.Dub.720p.WEB-DL.ExKinoRay.mkv
Format : Matroska
Format version : Version 2
File size : 3.17 GiB
Duration : 1 h 34 min
Overall bit rate : 4 787 kb/s
Movie name : The Keeping Hours 2017 from ExKinoRay
Encoded date : UTC 2019-05-11 04:33:38
Writing application : mkvmerge v5.6.0 ('Kenya Kane') built on May 27 2012 16:44:04
Writing library : libebml v1.2.3 + libmatroska v1.3.0

Video
ID : 1
Format : AVC
Format/Info : Advanced Video Codec
Format profile : Main@L3.1
Format settings, CABAC : No
Format settings, ReFrames : 2 frames
Codec ID : V_MPEG4/ISO/AVC
Duration : 1 h 34 min
Bit rate : 3 924 kb/s
Width : 1 280 pixels
Height : 530 pixels
Display aspect ratio : 2.40:1
Frame rate mode : Constant
Frame rate : 23.976 FPS
Color space : YUV
Chroma subsampling : 4:2:0
Bit depth : 8 bits
Scan type : Progressive
Bits/(Pixel*Frame) : 0.241
Stream size : 2.60 GiB (82%)
Title : The.Keeping.Hours.2018.720p.WEB-DL
Language : English
Default : Yes
Forced : No
Color range : Limited
Color primaries : BT.709
Transfer characteristics : BT.709
Matrix coefficients : BT.709

Audio #1
ID : 2
Format : AC-3
Format/Info : Audio Coding 3
Mode extension : CM (complete main)
Format settings, Endianness : Big
Codec ID : A_AC3
Duration : 1 h 34 min
Bit rate mode : Constant
Bit rate : 384 kb/s
Channel(s) : 6 channels
Channel positions : Front: L C R, Side: L R, LFE
Sampling rate : 48.0 kHz
Frame rate : 31.250 FPS (1536 spf)
Compression mode : Lossy
Stream size : 261 MiB (8%)
Title : Dub
Language : Russian
Default : Yes
Forced : No

Audio #2
ID : 3
Format : AC-3
Format/Info : Audio Coding 3
Mode extension : CM (complete main)
Format settings, Endianness : Big
Codec ID : A_AC3
Duration : 1 h 34 min
Bit rate mode : Constant
Bit rate : 384 kb/s
Channel(s) : 6 channels
Channel positions : Front: L C R, Side: L R, LFE
Sampling rate : 48.0 kHz
Frame rate : 31.250 FPS (1536 spf)
Compression mode : Lossy
Stream size : 261 MiB (8%)
Language : English
Default : No
Forced : No

Text #1
ID : 4
Format : UTF-8
Codec ID : S_TEXT/UTF8
Codec ID/Info : UTF-8 Plain Text
Title : Full
Language : Russian
Default : No
Forced : No

Text #2
ID : 5
Format : UTF-8
Codec ID : S_TEXT/UTF8
Codec ID/Info : UTF-8 Plain Text
Title : Full
Language : English
Default : No
Forced : No

Text #3
ID : 6
Format : UTF-8
Codec ID : S_TEXT/UTF8
Codec ID/Info : UTF-8 Plain Text
Title : SDH
Language : English
Default : No
Forced : No

Menu
00:00:00.000 : en:1
00:03:00.013 : en:2
00:07:21.232 : en:3
00:11:29.563 : en:4
00:14:40.420 : en:5
00:19:45.600 : en:6
00:24:53.115 : en:7
00:30:51.181 : en:8
00:36:45.034 : en:9
00:42:06.480 : en:10
00:46:51.723 : en:11
00:49:17.577 : en:12
00:53:45.219 : en:13
00:59:26.143 : en:14
01:04:21.563 : en:15
01:10:30.098 : en:16
01:14:01.309 : en:17
01:17:05.868 : en:18
01:22:23.977 : en:19
01:29:19.767 : en:20
Релиз от:

Автор релиза: pb.wtf



Скачать Останься со мной через торрент https://b.radikal.ru/b20/1812/9e/602c864a3b18.png Скачать фильм Останься со мной через торрент бесплантно в хорошем качестве Описание: 7 лет назад супруги Марк и Элизабет потеряли в автоаварии 5-летнего сына Джейкоба. Горе разрушило семью — Марк ушёл в алкоголь ... 9.8 10 6
Info! Золотая раздача, скачанное не засчитывается.
Торрент: Зарегистрирован [2019-05-11 13:02] · скачан: 102 раз
Статус: √ проверено
Размер: 3.17 GB
Как cкачать? Как скачать Останься со мной через торрент | qTorrent

% Раздел Тема Автор DL S | L
Фильмы 2017 [DVDrip, WEB-DLRip, HDrip] (DUB, MVO) [ 1.46 GB ] Останься со мной / The Keeping Hours [2017 DVDRip-AVC] DUB [ R5] - ExKinoRay Enigma2010 Скачать
12 | 0


>> Регистрируемся здесь <<






Отзывы и комментарии о схеме читаем и пишем здесь: ---> Отзывы и комментарии о схеме

Новые благодарочки в телеграм довольных пользователей:
скриншот   скриншот   скриншот   скриншот   скриншот
    Дорогой пользователь! Огромная просьба, поблагодарите релизера, оцените раздачу и оставьте свои комментарий, если Вы скачали Останься со мной через торрент бесплатно! Внесите свою лепту в развитие PiratBit!
    Комментировать посты могут только пользователи прошедшие не сложную регистрацию
    Показать сообщения:    

    Останься со мной через торрент
    Скачать бесплатно Останься со мной
    Останься со мной скачать торрент
    Останься со мной смотреть онлайн
    Cкачать фильм Останься со мной бесплатно
    Останься со мной скачать торрент в хорошем качестве
    Останься со мной смотреть онлайн бесплатно в хорошем качестве


    Вы не можете начинать темы
    Вы не можете отвечать на сообщения
    Вы не можете редактировать свои сообщения
    Вы не можете удалять свои сообщения
    Вы не можете голосовать в опросах
    Вы не можете прикреплять файлы к сообщениям
    Вы можете скачивать файлы