MEGA SALE -50% FORZA HORIZON 4 ULTIMATE+ВСЕ DLC+ОНЛАЙН всего за 599р. 299 руб. (супер цена). Внимание количество ограничено!!!

iTunes

1+1

iTunes

мы

iTunes

1

iTunes

Чернобыль

1 сезон

Ральф против интернета

Лицензия

ПШазам

Лицензия

Игра престолов

Лицензия

30
pack

ВАЖНО

!!Акция!!

Alien_RageХит недели

RePack

Resident Evil 21

ИГРА 18+

pack

RePack

Metro:Exodus

!!Акция!!

Alien_Rage

RePack

fifa19

RePack

Assassins Creed: Odyssey

RePack

NEED FOR SPEED™ PAYBACK

3 сезон

9 сезон

Бесстыжие 9 сезон

Все сериалы

все сериалы на PB.wtf

RePack

FAR CRY 5
Ребята, катастрофически не хватает 7730р. для оплаты серверов за ИЮЛЬ (всвязи с блокировками трафик упал в 3 раза), 1-2р., выручайте.
  

Блеф / Bluff storia di truffe e di imbroglioni (Серджо Корбуччи) [1976, комедия, криминал, BDRip 720p by msltel] DUB, MVO pb.wtf

Блеф через торрент pb.wtf

Раздают: 3 [ 0 KB/s ]
Размер: 5.14 GB | Добавлен: 3 мес. 9 д. назад | Торрент скачан:83 раза
Скачать  

12-05-2019 08:57 Блеф Скачать торрент  

Название: Блеф
Оригинальное название: Bluff storia di truffe e di imbroglioni
Год выпуска: 1976
Страна: Италия
Жанр: комедия, криминал
Продолжительность: 01:49:01
Перевод: дублированный, профессиональный многоголосый

Режиссер: Серджо Корбуччи
В ролях: Адриано Челентано, Энтони Куинн, Коринн Клери, Капюсин, Аттилио Доттесио, Ренцо Мариньяно, Фортунатто Арена, Энрико Паломбини, Вирджилио Понти, Савиана Скалфи, Лерро Рокко, Ренцо Одзано

О фильме: Действие фильма разворачивается примерно в начале 1930-х годов во Франции. Роковая красавица Белль Дюк (глава мафии и владелица казино) имеет старые счёты со знаменитым аферистом Филиппом Бэнгом, который отбывает свой срок за решёткой. Для того чтобы поквитаться с Филиппом, Белль Дюк со своими подручными бандитами заставляет другого жулика по имени Феликс организовать побег Филиппа Бэнга из тюрьмы. Побег удаётся, но парочка аферистов заодно обманывает и Белль Дюк, исчезнув прямо из-под её носа. Выясняется, что и Филипп Бэнг, в свою очередь, не прочь отомстить ей. Для этого он задумывает грандиозную мистификацию, сродни покерному блефу... (Википедия)



Качество: BDRip 720p
Формат: MKV
Видео: MPEG-4 AVC, 6074 Кбит/с, 1280x694, 23.976 Кадр/с
Аудио 1: русский, AC3, 224 kbps, 2 ch, 48 kHz [дублированный с добавлением MVO]
Аудио 2: русский, AC3, 256 kbps, 2 ch, 48 kHz [закадровый многоголосый]
Аудио 3: итальянский, AC3, 192 kbps, 2 ch, 48 kHz [оригинал]
Субтитры: русские
Общее
Уникальный идентификатор : 187418494720697130490763555048723858790 (0x8CFF7D366890A2C5B52C32F2414C4566)
Полное имя : D:\Video\Блеф.1976.BDRip 720p by msltel.mkv
Формат : Matroska
Версия формата : Version 4
Размер файла : 5,14 Гбайт
Продолжительность : 1 ч. 49 м.
Общий поток : 6749 Кбит/сек
Название фильма : Rip by msltel
Дата кодирования : UTC 2019-05-12 05:30:27
Программа кодирования : mkvmerge v8.2.0 ('World of Adventure') 64bit
Библиотека кодирования : libebml v1.3.1 + libmatroska v1.4.2

Видео
Идентификатор : 1
Формат : AVC
Формат/Информация : Advanced Video Codec
Профиль формата : High@L4.1
Настройки формата : CABAC / 9 Ref Frames
Параметр CABAC формата : Да
Параметр RefFrames формата : 9 кадров
Идентификатор кодека : V_MPEG4/ISO/AVC
Продолжительность : 1 ч. 49 м.
Битрейт : 6074 Кбит/сек
Ширина : 1280 пикселей
Высота : 694 пикселя
Соотношение сторон : 1,85:1
Режим частоты кадров : Постоянный
Частота кадров : 23,976 (24000/1001) кадра/сек
Цветовое пространство : YUV
Субдискретизация насыщенности : 4:2:0
Битовая глубина : 8 бит
Тип развёртки : Прогрессивная
Бит/(Пиксели*Кадры) : 0.285
Размер потока : 4,63 Гбайт (90%)
Библиотека кодирования : x264 core 157 r2935 545de2f
Настройки программы : cabac=1 / ref=9 / deblock=1:-2:-2 / analyse=0x3:0x113 / me=umh / subme=11 / psy=1 / psy_rd=1.00:0.15 / mixed_ref=1 / me_range=32 / chroma_me=1 / trellis=2 / 8x8dct=1 / cqm=0 / deadzone=21,11 / fast_pskip=0 / chroma_qp_offset=-3 / threads=6 / lookahead_threads=1 / sliced_threads=0 / nr=0 / decimate=1 / interlaced=0 / bluray_compat=0 / constrained_intra=0 / bframes=6 / b_pyramid=2 / b_adapt=2 / b_bias=0 / direct=1 / weightb=1 / open_gop=0 / weightp=2 / keyint=230 / keyint_min=23 / scenecut=40 / intra_refresh=0 / rc_lookahead=40 / rc=crf / mbtree=1 / crf=18.0 / qcomp=0.60 / qpmin=0 / qpmax=69 / qpstep=4 / vbv_maxrate=50000 / vbv_bufsize=62500 / crf_max=0.0 / nal_hrd=none / filler=0 / ip_ratio=1.40 / aq=1:1.00
Язык : Italian
Default : Да
Forced : Нет

Аудио #1
Идентификатор : 2
Формат : AC-3
Формат/Информация : Audio Coding 3
Коммерческое название : Dolby Digital
Идентификатор кодека : A_AC3
Продолжительность : 1 ч. 48 м.
Вид битрейта : Постоянный
Битрейт : 224 Кбит/сек
Каналы : 2 канала
ChannelLayout : L R
Частота : 48,0 КГц
Частота кадров : 31,250 кадров/сек (1536 SPF)
Битовая глубина : 16 бит
Метод сжатия : С потерями
Размер потока : 175 Мбайт (3%)
Заголовок : DUB с добавлением MVO
Язык : Russian
ServiceKind/String : Complete Main
Default : Да
Forced : Нет

Аудио #2
Идентификатор : 3
Формат : AC-3
Формат/Информация : Audio Coding 3
Коммерческое название : Dolby Digital
Идентификатор кодека : A_AC3
Продолжительность : 1 ч. 48 м.
Вид битрейта : Постоянный
Битрейт : 256 Кбит/сек
Каналы : 2 канала
ChannelLayout : L R
Частота : 48,0 КГц
Частота кадров : 31,250 кадров/сек (1536 SPF)
Битовая глубина : 16 бит
Метод сжатия : С потерями
Размер потока : 200 Мбайт (4%)
Заголовок : MVO
Язык : Russian
ServiceKind/String : Complete Main
Default : Нет
Forced : Нет

Аудио #3
Идентификатор : 4
Формат : AC-3
Формат/Информация : Audio Coding 3
Коммерческое название : Dolby Digital
Идентификатор кодека : A_AC3
Продолжительность : 1 ч. 49 м.
Вид битрейта : Постоянный
Битрейт : 192 Кбит/сек
Каналы : 2 канала
ChannelLayout : L R
Частота : 48,0 КГц
Частота кадров : 31,250 кадров/сек (1536 SPF)
Битовая глубина : 16 бит
Метод сжатия : С потерями
Размер потока : 150 Мбайт (3%)
Заголовок : original
Язык : Italian
ServiceKind/String : Complete Main
Default : Нет
Forced : Нет

Текст
Идентификатор : 5
Формат : UTF-8
Идентификатор кодека : S_TEXT/UTF8
Идентификатор кодека/Информация : UTF-8 Plain Text
Продолжительность : 1 ч. 47 м.
Битрейт : 109 бит/сек
ElementCount : 1520
Размер потока : 85,8 Кбайт (0%)
Заголовок : русские
Язык : Russian
Default : Нет
Forced : Нет
pb.wtf



Скачать Блеф через торрент https://c.radikal.ru/c42/1905/5a/a087f3dcff50.jpg Скачать фильм Блеф через торрент бесплантно в хорошем качестве О фильме: Действие фильма разворачивается примерно в начале 1930-х годов во Франции. Роковая красавица Белль Дюк (глава мафии и владелица ... 10 10 10
Info! Золотая раздача, скачанное не засчитывается.
Торрент: Зарегистрирован [2019-05-12 08:57] · скачан: 83 раз
Статус: √ проверено
Размер: 5.14 GB
Как cкачать? Как скачать Блеф через торрент | qTorrent

% Раздел Тема Автор DL S | L
Фильмы (Blu-ray, BD-Remux, HDDVD) [ 33.55 GB ] Блеф / Bluff storia di truffe e di imbroglioni [1976 BD-Remux от TeamHD] DUB MVO DVO AVO еnvy Скачать
1 | 0
Фильмы [HD 720p, 1080p] (Хороший звук DUB, MVO) [ 13.23 GB ] Блеф / Bluff storia di truffe e di imbroglioni [1976 BDRip 1080p by msltel] DUB MVO msltel Скачать
2 | 0


>> Регистрируемся здесь <<






Отзывы и комментарии о схеме читаем и пишем здесь: ---> Отзывы и комментарии о схеме

Новые благодарочки в телеграм довольных пользователей:
скриншот   скриншот   скриншот   скриншот   скриншот

12-05-2019 15:35 Блеф Скачать торрент  

rayl116rus писал(а):

Кто видел,обязательно пересмотрит,спасибо handshake

Согласен, но лучше с советским переводом.
pb.wtf



12-05-2019 20:36 Блеф Скачать торрент  

rayl116rus писал(а):

Кто видел,обязательно пересмотрит,спасибо handshake

убедил)-pb.wtf



13-05-2019 18:48 Блеф Скачать торрент  

А тут нет двух мнений, фильм отменный. Спасибо.pb.wtf



    Дорогой пользователь! Огромная просьба, поблагодарите релизера, оцените раздачу и оставьте свои комментарий, если Вы скачали Блеф через торрент бесплатно! Внесите свою лепту в развитие PiratBit!
    Комментировать посты могут только пользователи прошедшие не сложную регистрацию
    Показать сообщения:    

    Блеф через торрент
    Скачать бесплатно Блеф
    Блеф скачать торрент
    Блеф смотреть онлайн
    Cкачать фильм Блеф бесплатно
    Блеф скачать торрент в хорошем качестве
    Блеф смотреть онлайн бесплатно в хорошем качестве


    Вы не можете начинать темы
    Вы не можете отвечать на сообщения
    Вы не можете редактировать свои сообщения
    Вы не можете удалять свои сообщения
    Вы не можете голосовать в опросах
    Вы не можете прикреплять файлы к сообщениям
    Вы можете скачивать файлы