Доктор Стрэндж

Лицензия

Добыча

Дубляж

Уэнсдэй

1 сезон

Тор

Дубляж

В эфире

Дубляж

Там, где раки поют

MVO

Властелин колец

1 сезон

Deluxe

pack

Рекомендуем

30

Пиратка

ВАЖНО

ВАЖНО

Ghostwire

Пиратка

jed

RePack

nioh2

RePack

RDR2

RePack

NEED FOR SPEED™ PAYBACK

RePack

скачать торрент

Кинопоиск HD

Острые козырьки 6 сезон

6 сезон

FAR CRY 6

RePack

скачать торрент

Лицензия

скачать торрент

MVO

1

1 сезон

скачать торрент

1 сезон

скачать торрент

Лицензия

  

Заваруха в городе / City Heat (Ричард Бенджамин) [1984 г., боевик, комедия, криминал, Blu-Ray Remux 1080p] MVO (НТВ+), 3xAVO (А.Михалёв, Л.Володарский, А.Гаврилов)

Заваруха в городе через торрент pb.wtf

Размер: 26.48 GB | Добавлен: 3 года 6 мес. назад | Торрент скачан:1 раз
Смотреть онлайн | Скачать   

12-05-2019 09:40 Заваруха в городе Скачать торрент  

Заваруха в городе / City Heat
Год выпуска: 1984

Страна: США

Жанр: Боевик, комедия, криминал

Продолжительность: 01:37:30

Перевод: Профессиональный (многоголосый), авторский (одноголосый)

Субтитры: Русские, английские

Режиссер: Ричард Бенджамин

rating

В ролях: Клинт Иствуд, Бёрт Рейнолдс, Джейн Александр (I), Мэдлин Кан, Рип Торн, Ирена Кара, Ричард Раундтри, Тони Ло Бьянко, Уильям Сэндерсон, Николас Уорт, Роберт Дави, Джуд Фарезе, Джон Хэнкок, Джек Тибо, Джералд С. О’Лофлин, Брюс М. Фишер, Арт ЛаФлёр, Джек Нэнс, Даллас Коул, Лу Филлипо

Описание: 1933 год, Канзас Сити. Смышлёный частный детектив Мерфи ищет бандита, который жестоко разделался с его напарником. А шеф полиции Спир вообще бандитов не выносит, так что разговор у лейтенанта с уголовным элементом, как правило, получается короткий. Нельзя сказать, что Спир и Мерфи – в большом восторге друг от друга, но именно это, как ни странно, делает их идеальными партнерами в "зачистке" города от кровожадных преступников! Ведь заваруха как раз и начинается!
Качество: Blu-Ray Remux 1080p
Формат: BDMV
Видео кодек: MPEG-4 AVC
Аудио кодек: AC3, DTS
Видео: MPEG-4 AVC, 36000 Кбит/с, 1920x1080, 23.976 кадр/с
Аудио#1: Русский, AC3, 2 ch, 192 Кбит/с - MVO (, НТВ+)
Аудио#2: Русский, AC3, 6 ch, 448 Кбит/с - AVO (А.Михалёв)
Аудио#3: Русский, AC3, 6 ch, 448 Кбит/с - AVO (Л.Володарский)
Аудио#4: Русский, AC3, 2 ch, 192 Кбит/с - AVO (А.Гаврилов)
Аудио#5: Английский, DTS, 6 ch, 3561 Кбит/с
Видео
Идентификатор : 4113 (0x1011)
Идентификатор меню : 1 (0x1)
Формат : AVC
Формат/Информация : Advanced Video Codec
Профиль формата : [email protected]
Настройки формата : CABAC / 4 Ref Frames
Параметр CABAC формата : Да
Параметр RefFrames формата : 4 кадра
Идентификатор кодека : 27
Продолжительность : 1 ч. 37 м.
Вид битрейта : Переменный
Максимальный битрейт : 36,0 Мбит/сек
Ширина : 1920 пикселей
Высота : 1080 пикселей
Соотношение сторон : 16:9
Частота кадров : 23,976 (24000/1001) кадра/сек
Цветовое пространство : YUV
Субдискретизация насыщенности : 4:2:0
Битовая глубина : 8 бит
Тип развёртки : Прогрессивная

Аудио #1
Идентификатор : 4352 (0x1100)
Идентификатор меню : 1 (0x1)
Формат : AC-3
Формат/Информация : Audio Coding 3
Коммерческое название : Dolby Digital
Идентификатор кодека : 129
Продолжительность : 1 ч. 37 м.
Вид битрейта : Постоянный
Битрейт : 192 Кбит/сек
Каналы : 2 канала
Channel layout : L R
Частота : 48,0 КГц
Частота кадров : 31,250 кадров/сек (1536 SPF)
Битовая глубина : 16 бит
Метод сжатия : С потерями
Размер потока : 134 Мбайт (0%)
Язык : Russian
ServiceKind/String : Complete Main

Аудио #2
Идентификатор : 4353 (0x1101)
Идентификатор меню : 1 (0x1)
Формат : AC-3
Формат/Информация : Audio Coding 3
Коммерческое название : Dolby Digital
Идентификатор кодека : 129
Продолжительность : 1 ч. 37 м.
Вид битрейта : Постоянный
Битрейт : 448 Кбит/сек
Каналы : 6 каналов
Channel layout : L R C LFE Ls Rs
Частота : 48,0 КГц
Частота кадров : 31,250 кадров/сек (1536 SPF)
Битовая глубина : 16 бит
Метод сжатия : С потерями
Размер потока : 312 Мбайт (1%)
Язык : Russian
ServiceKind/String : Complete Main

Аудио #3
Идентификатор : 4354 (0x1102)
Идентификатор меню : 1 (0x1)
Формат : AC-3
Формат/Информация : Audio Coding 3
Коммерческое название : Dolby Digital
Идентификатор кодека : 129
Продолжительность : 1 ч. 37 м.
Вид битрейта : Постоянный
Битрейт : 448 Кбит/сек
Каналы : 6 каналов
Channel layout : L R C LFE Ls Rs
Частота : 48,0 КГц
Частота кадров : 31,250 кадров/сек (1536 SPF)
Битовая глубина : 16 бит
Метод сжатия : С потерями
Размер потока : 312 Мбайт (1%)
Язык : Russian
ServiceKind/String : Complete Main

Аудио #4
Идентификатор : 4355 (0x1103)
Идентификатор меню : 1 (0x1)
Формат : AC-3
Формат/Информация : Audio Coding 3
Коммерческое название : Dolby Digital
Идентификатор кодека : 129
Продолжительность : 1 ч. 37 м.
Вид битрейта : Постоянный
Битрейт : 192 Кбит/сек
Каналы : 2 канала
Channel layout : L R
Частота : 48,0 КГц
Частота кадров : 31,250 кадров/сек (1536 SPF)
Битовая глубина : 16 бит
Метод сжатия : С потерями
Размер потока : 134 Мбайт (0%)
Язык : Russian
ServiceKind/String : Complete Main

Аудио #5
Идентификатор : 4356 (0x1104)
Идентификатор меню : 1 (0x1)
Формат : DTS XLL
Формат/Информация : Digital Theater Systems
Коммерческое название : DTS-HD Master Audio
Режим смешивания : Stream extension
Идентификатор кодека : 134
Продолжительность : 1 ч. 37 м.
Вид битрейта : Переменный
Каналы : 6 каналов
Channel layout : C L R Ls Rs LFE
Частота : 48,0 КГц
Частота кадров : 93,750 кадра/сек (512 SPF)
Битовая глубина : 24 бит
Метод сжатия : Без потерь
Язык : English

Текст #1
Идентификатор : 4608 (0x1200)
Идентификатор меню : 1 (0x1)
Формат : PGS
Идентификатор кодека : 144
Язык : Russian

Текст #2
Идентификатор : 4609 (0x1201)
Идентификатор меню : 1 (0x1)
Формат : PGS
Идентификатор кодека : 144
Язык : English





Скачать Заваруха в городе через торрент https://pic1.kartinco.top/images/12/i9gep.jpg Скачать, смотреть онлайн Заваруха в городе бесплантно в хорошем качестве Описание: 1933 год, Канзас Сити. Смышлёный частный детектив Мерфи ищет бандита, который жестоко разделался с его напарником. А шеф полиции ... 10 10 2
Info! Золотая раздача, скачанное не засчитывается.
Торрент: Зарегистрирован [2019-05-12 09:40] · скачан: 1 раз
Статус: √ проверено
Размер: 26.48 GB
Как cкачать? Как скачать Заваруха в городе через торрент | UTorrent

% Раздел Тема Автор DL S | L
Фильмы до 2000 г. [ 1.44 GB ] Заваруха в городе / City Heat | MVO | BDRip koenig Скачать
1 | 0
Фильмы [HD 720p, 1080p] (Хороший звук DUB, MVO) [ 14.74 GB ] Заваруха в городе / City Heat | MVO | 1080p msltel Скачать
1 | 0
Фильмы [HD 720p, 1080p] (Хороший звук DUB, MVO) [ 5.67 GB ] Заваруха в городе / City Heat | MVO | 720p msltel Скачать
1 | 0
Фильмы до 2000 г. [ 2.24 GB ] Заваруха в городе / City Heat | | DVDRip feldeger Скачать
1 | 0

28-11-2019 20:33  


Отключить вcю реклaмy на сайте, в т.ч. и в плеере онлайн просмотра!

    Дорогой пользователь! Огромная просьба, поблагодарите релизера, оцените раздачу и оставьте свои комментарий, если Вы скачали Заваруха в городе через торрент бесплатно!!
    Комментировать посты могут только пользователи прошедшие не сложную регистрацию
    Показать сообщения:    


    Заваруха в городе через торрент
    Скачать бесплатно Заваруха в городе
    Заваруха в городе скачать торрент
    Заваруха в городе смотреть онлайн
    Cкачать фильм Заваруха в городе бесплатно
    Заваруха в городе скачать торрент в хорошем качестве
    Заваруха в городе смотреть онлайн бесплатно в хорошем качестве
    Вы не можете начинать темы
    Вы не можете отвечать на сообщения
    Вы не можете редактировать свои сообщения
    Вы не можете удалять свои сообщения
    Вы не можете голосовать в опросах
    Вы не можете прикреплять файлы к сообщениям
    Вы можете скачивать файлы
    Заваруха в городе / City Heat [1984 г., боевик, комедия, криминал, Blu-Ray Remux 1080p] MVO , 3xAVO смотреть онлайн, скачать торрент picoco.icu