Всегда рабочее зеркало без VPN и Proxy просто перед .vidak.icu напиши любое слово или цифру, Пример http://ecl1.vidak.icu

MVO

MVO

1 сезон

1

1 сезон

iTunes

1 сезон

13

1 сезон

Deluxe

pack

Рекомендуем

Repack

30

ВАЖНО

RePack

MK11

RePack

jed

RePack

fifa19

RePack

RDR2

RePack

NEED FOR SPEED™ PAYBACK

Кинопоиск HD

6 сезон

 Острые козырьки 6 сезон

Все сериалы

все сериалы на PB.wtf

RePack

FAR CRY 5
  
Magnet ссылка

Обратная тяга / Backdraft (Рон Ховард) [1991, боевик, триллер, драма, криминал, детектив, UHD Blu-Ray Remux - HEVC 2160p (10 Bit)] 5xMVO, 3xAVO pb.wtf

Обратная тяга через торрент pb.wtf

Размер: 57.18 GB | Добавлен: 3 года 2 мес. назад | Торрент скачан:10 раз
Смотреть онлайн Обратная тяга | Скачать    Ребята, помогите собрать деньги на оплату серверов!!!

12-05-2019 11:32 Обратная тяга Скачать торрент  

Обратная тяга / Backdraft
Год выпуска: 1991

Страна: США

Жанр: Боевик, триллер, драма, криминал, детектив

Продолжительность: 02:17:11

Перевод: Профессиональный (многоголосый), авторский (одноголосый)

Субтитры: Русские, английские

Режиссер: Рон Ховард

rating

В ролях: Курт Расселл, Уильям Болдуин, Роберт Де Ниро, Дональд Сазерленд, Дженнифер Джейсон Ли, Скотт Гленн, Ребекка Де Морнэй, Джейсон Гедрик, Дж.Т. Уолш, Энтони Мокус ст., Седрик Янг, Хуан Рамирес, Кевин Кэйси, Джек МакГи, Марк Вилер, Ричард Лексси, Бип Иамс, Райан Тодд, Роберт Суон, Клинт Ховард

Описание: «Обратная тяга» — это термин профессиональных пожарных. В результате «обратной тяги» погибает отец Брайана и Стивена. В отличии от Стивена, Брайан отказывается от карьеры пожарного, но судьба распоряжается так, что братья оказываются в одном отряде. Отношения между ними натянуты. Вскоре младший покидает команду, чтобы вместе со следователем поймать поджигателя-маньяка…
Качество: Blu-Ray Remux 2160p
Формат: MKV
Видео кодек: HEVC
Аудио кодек: AC3, DTS
Видео: HEVC, 50,4 Мбит/с, 3840x2160, 23.976 кадр/с, 10 Bit
Аудио#1: Русский, AC3, 6 ch, 384 Кбит/с - MVO (R5)
Аудио#2: Русский, AC3, 6 ch, 448 Кбит/с - MVO (Киномания)
Аудио#3: Русский, AC3, 2 ch, 192 Кбит/с - MVO (Премьер Видео Фильм)
Аудио#4: Русский, AC3, 2 ch, 192 Кбит/с - MVO (Первый канал)
Аудио#5: Русский, DTS, 6 ch, 1509 Кбит/сек - AVO (А.Гаврилов)
Аудио#6: Русский, DTS, 6 ch, 1509 Кбит/сек - AVO (Ю.Живов)
Аудио#7: Русский, DTS, 6 ch, 1509 Кбит/сек - AVO (Е.Гаевский)
Аудио#8: Украинский, AC3, 2 ch, 192 Кбит/с - MVO (Интер)
Аудио#9: Английский, DTS, 8 ch, 3292 Кбит/сек
Видео
Идентификатор : 1
Формат : HEVC
Формат/Информация : High Efficiency Video Coding
Коммерческое название : HDR10
Профиль формата : Main [email protected]@High
Идентификатор кодека : V_MPEGH/ISO/HEVC
Продолжительность : 2 ч. 17 м.
Битрейт : 50,4 Мбит/сек
Ширина : 3840 пикселей
Высота : 2160 пикселей
Соотношение сторон : 16:9
Режим частоты кадров : Постоянный
Частота кадров : 23,976 (24000/1001) кадра/сек
Цветовое пространство : YUV
Субдискретизация насыщенности : 4:2:0 (Type 2)
Битовая глубина : 10 бит
Бит/(Пиксели*Кадры) : 0.254
Размер потока : 48,3 Гбайт (84%)
Заголовок : Backdraft.1991.2160p.BluRay.REMUX.HEVC.DTS-X.7.1.Rus.Ukr.Eng.SpaceHD13
Библиотека кодирования : ATEME Titan File 3.9.0 (4.9.0.0)
Язык : Russian
Default : Да
Forced : Нет
Цветовой диапазон : Limited
Основные цвета : BT.2020
Характеристики трансфера : PQ
Коэффициенты матрицы : BT.2020 non-constant
MasteringDisplay_ColorPrimaries : Display P3
MasteringDisplay_Luminance : min: 0.0050 cd/m2, max: 1000 cd/m2
MaxCLL : 1000 cd/m2
MaxFALL : 317 cd/m2

Аудио #1
Идентификатор : 2
Формат : AC-3
Формат/Информация : Audio Coding 3
Коммерческое название : Dolby Digital
Идентификатор кодека : A_AC3
Продолжительность : 2 ч. 17 м.
Вид битрейта : Постоянный
Битрейт : 384 Кбит/сек
Каналы : 6 каналов
Channel layout : L R C LFE Ls Rs
Частота : 48,0 КГц
Частота кадров : 31,250 кадров/сек (1536 SPF)
Битовая глубина : 16 бит
Метод сжатия : С потерями
Размер потока : 377 Мбайт (1%)
Заголовок : MVO-R5
Язык : Russian
ServiceKind/String : Complete Main
Default : Да
Forced : Нет

Аудио #2
Идентификатор : 3
Формат : AC-3
Формат/Информация : Audio Coding 3
Коммерческое название : Dolby Digital
Идентификатор кодека : A_AC3
Продолжительность : 2 ч. 17 м.
Вид битрейта : Постоянный
Битрейт : 448 Кбит/сек
Каналы : 6 каналов
Channel layout : L R C LFE Ls Rs
Частота : 48,0 КГц
Частота кадров : 31,250 кадров/сек (1536 SPF)
Битовая глубина : 16 бит
Метод сжатия : С потерями
Размер потока : 440 Мбайт (1%)
Заголовок : MVO-Киномания
Язык : Russian
ServiceKind/String : Complete Main
Default : Нет
Forced : Нет

Аудио #3
Идентификатор : 4
Формат : AC-3
Формат/Информация : Audio Coding 3
Коммерческое название : Dolby Digital
Идентификатор кодека : A_AC3
Продолжительность : 2 ч. 17 м.
Вид битрейта : Постоянный
Битрейт : 192 Кбит/сек
Каналы : 2 канала
Channel layout : L R
Частота : 48,0 КГц
Частота кадров : 31,250 кадров/сек (1536 SPF)
Битовая глубина : 16 бит
Метод сжатия : С потерями
Размер потока : 189 Мбайт (0%)
Заголовок : MVO-Премьер Видео Фильм
Язык : Russian
ServiceKind/String : Complete Main
Default : Нет
Forced : Нет

Аудио #4
Идентификатор : 5
Формат : AC-3
Формат/Информация : Audio Coding 3
Коммерческое название : Dolby Digital
Идентификатор кодека : A_AC3
Продолжительность : 2 ч. 17 м.
Вид битрейта : Постоянный
Битрейт : 192 Кбит/сек
Каналы : 2 канала
Channel layout : L R
Частота : 48,0 КГц
Частота кадров : 31,250 кадров/сек (1536 SPF)
Битовая глубина : 16 бит
Метод сжатия : С потерями
Размер потока : 189 Мбайт (0%)
Заголовок : MVO-1TV
Язык : Russian
ServiceKind/String : Complete Main
Default : Нет
Forced : Нет

Аудио #5
Идентификатор : 6
Формат : DTS
Формат/Информация : Digital Theater Systems
Идентификатор кодека : A_DTS
Продолжительность : 2 ч. 17 м.
Вид битрейта : Постоянный
Битрейт : 1509 Кбит/сек
Каналы : 6 каналов
Channel layout : C L R Ls Rs LFE
Частота : 48,0 КГц
Частота кадров : 93,750 кадра/сек (512 SPF)
Битовая глубина : 24 бит
Метод сжатия : С потерями
Размер потока : 1,45 Гбайт (3%)
Заголовок : AVO-А.Гаврилов
Язык : Russian
Default : Нет
Forced : Нет

Аудио #6
Идентификатор : 7
Формат : DTS
Формат/Информация : Digital Theater Systems
Идентификатор кодека : A_DTS
Продолжительность : 2 ч. 17 м.
Вид битрейта : Постоянный
Битрейт : 1509 Кбит/сек
Каналы : 6 каналов
Channel layout : C L R Ls Rs LFE
Частота : 48,0 КГц
Частота кадров : 93,750 кадра/сек (512 SPF)
Битовая глубина : 24 бит
Метод сжатия : С потерями
Размер потока : 1,45 Гбайт (3%)
Заголовок : AVO-Ю.Живов
Язык : Russian
Default : Нет
Forced : Нет

Аудио #7
Идентификатор : 8
Формат : DTS
Формат/Информация : Digital Theater Systems
Идентификатор кодека : A_DTS
Продолжительность : 2 ч. 17 м.
Вид битрейта : Постоянный
Битрейт : 1509 Кбит/сек
Каналы : 6 каналов
Channel layout : C L R Ls Rs LFE
Частота : 48,0 КГц
Частота кадров : 93,750 кадра/сек (512 SPF)
Битовая глубина : 24 бит
Метод сжатия : С потерями
Размер потока : 1,45 Гбайт (3%)
Заголовок : AVO-Е.Гаевский
Язык : Russian
Default : Нет
Forced : Нет

Аудио #8
Идентификатор : 9
Формат : AC-3
Формат/Информация : Audio Coding 3
Коммерческое название : Dolby Digital
Идентификатор кодека : A_AC3
Продолжительность : 2 ч. 17 м.
Вид битрейта : Постоянный
Битрейт : 192 Кбит/сек
Каналы : 2 канала
Channel layout : L R
Частота : 48,0 КГц
Частота кадров : 31,250 кадров/сек (1536 SPF)
Битовая глубина : 16 бит
Метод сжатия : С потерями
Размер потока : 188 Мбайт (0%)
Заголовок : MVO-Интер
Язык : Ukrainian
ServiceKind/String : Complete Main
Default : Нет
Forced : Нет

Аудио #9
Идентификатор : 10
Формат : DTS XLL X
Формат/Информация : Digital Theater Systems
Коммерческое название : DTS-HD Master Audio
Идентификатор кодека : A_DTS
Продолжительность : 2 ч. 17 м.
Вид битрейта : Переменный
Битрейт : 3292 Кбит/сек
Каналы : 8 каналов
Channel(s)_Original : Object Based
Channel layout : Object Based
Частота : 48,0 КГц
Частота кадров : 93,750 кадра/сек (512 SPF)
Битовая глубина : 24 бит
Размер потока : 3,15 Гбайт (6%)
Язык : English
Default : Нет
Forced : Нет

Текст #1
Идентификатор : 11
Формат : UTF-8
Идентификатор кодека : S_TEXT/UTF8
Идентификатор кодека/Информация : UTF-8 Plain Text
Продолжительность : 2 ч. 9 м.
Битрейт : 70 бит/сек
ElementCount : 1370
Размер потока : 66,9 Кбайт (0%)
Язык : Russian
Default : Да
Forced : Нет

Текст #2
Идентификатор : 12
Формат : UTF-8
Идентификатор кодека : S_TEXT/UTF8
Идентификатор кодека/Информация : UTF-8 Plain Text
Продолжительность : 2 ч. 8 м.
Битрейт : 45 бит/сек
ElementCount : 1443
Размер потока : 42,3 Кбайт (0%)
Язык : English
Default : Нет
Forced : Нет

Текст #3
Идентификатор : 13
Формат : UTF-8
Идентификатор кодека : S_TEXT/UTF8
Идентификатор кодека/Информация : UTF-8 Plain Text
Продолжительность : 2 ч. 9 м.
Битрейт : 46 бит/сек
ElementCount : 1552
Размер потока : 44,1 Кбайт (0%)
Заголовок : SDH
Язык : English
Default : Нет
Forced : Нет

Текст #4
Идентификатор : 14
Формат : PGS
Режим смешивания : zlib
Идентификатор кодека : S_HDMV/PGS
Идентификатор кодека/Информация : Picture based subtitle format used on BDs/HD-DVDs
Продолжительность : 2 ч. 9 м.
Битрейт : 31,6 Кбит/сек
ElementCount : 3186
Размер потока : 29,4 Мбайт (0%)
Язык : English
Default : Нет
Forced : Нет

Меню
00:00:00.000 : en:Chapter 01
00:05:49.474 : en:Chapter 02
00:15:45.611 : en:Chapter 03
00:18:24.978 : en:Chapter 04
00:39:05.259 : en:Chapter 05
00:48:02.880 : en:Chapter 06
00:51:56.279 : en:Chapter 07
00:59:25.728 : en:Chapter 08
01:03:26.719 : en:Chapter 09
01:14:42.394 : en:Chapter 10
01:24:17.385 : en:Chapter 11
01:38:27.526 : en:Chapter 12
01:42:02.324 : en:Chapter 13
01:51:50.245 : en:Chapter 14
02:03:18.599 : en:Chapter 15
02:07:10.247 : en:Chapter 16


pb.wtf



Скачать Обратная тяга через торрент https://pic1.kartinco.top/images/12/z2sww.jpg Скачать, смотреть онлайн Обратная тяга бесплантно в хорошем качестве Описание: «Обратная тяга» — это термин профессиональных пожарных. В результате «обратной тяги» погибает отец Брайана и Стивена. В отличии ... 10 10 1
Info! Золотая раздача, скачанное не засчитывается.
Торрент: Зарегистрирован [2019-05-12 11:32] · скачан: 10 раз
Статус: √ проверено
Размер: 57.18 GB
Как cкачать? Как скачать Обратная тяга через торрент | UTorrent

% Раздел Тема Автор DL S | L
Ultra HD (UHD: 2K, 4K, 8K) — видео сверхвысокой чёткости [ 59.06 GB ] Обратная тяга / Backdraft [1991 UHD BDRemux 2160p] 2xMVO + 2xDVO + 2xAVO sheker187 Скачать
1 | 0
Фильмы (WEB-DL 720p, 1080p) [ 16.47 GB ] Обратная тяга / Backdraft [1991 WEB-DL 1080p] [Open Matte] 3xAVO+4xMVO bober100 Скачать
1 | 0

28-11-2019 20:33  

Отключить вcю реклaмy на сайте

    Дорогой пользователь! Огромная просьба, поблагодарите релизера, оцените раздачу и оставьте свои комментарий, если Вы скачали Обратная тяга через торрент бесплатно!
    Комментировать посты могут только пользователи прошедшие не сложную регистрацию
    Показать сообщения:    

    Обратная тяга через торрент
    Скачать бесплатно Обратная тяга
    Обратная тяга скачать торрент
    Обратная тяга смотреть онлайн
    Cкачать фильм Обратная тяга бесплатно
    Обратная тяга скачать торрент в хорошем качестве
    Обратная тяга смотреть онлайн бесплатно в хорошем качестве


    Вы не можете начинать темы
    Вы не можете отвечать на сообщения
    Вы не можете редактировать свои сообщения
    Вы не можете удалять свои сообщения
    Вы не можете голосовать в опросах
    Вы не можете прикреплять файлы к сообщениям
    Вы можете скачивать файлы