Мега распродажа FORZA HORIZON 4 ULTIMATE+ВСЕ DLC+ОНЛАЙН всего за 499р. 349 руб. (супер цена). Внимание количество ограничено!!!

Лицензия

30

iTunes

мы

iTunes

1

1 сезон

Чернобыль

1 сезон

Ральф против интернета

MVO

Покемон. Детектив Пикачу

8 сезон

Игра престолов

iTunes

1+1

ИГРА 18+

pack

ВАЖНО

!!Акция!!

Alien_RageХит недели

RePack

Resident Evil 21
pack

RePack

Metro:Exodus

!!Акция!!

Alien_Rage

RePack

fifa19

RePack

Assassins Creed: Odyssey

RePack

NEED FOR SPEED™ PAYBACK

3 сезон

9 сезон

Бесстыжие 9 сезон

Все сериалы

все сериалы на PB.wtf

RePack

FAR CRY 5
Ребята, катастрофически не хватает 2730р. для оплаты серверов за МАЙ (всвязи с блокировками трафик упал в 3 раза), 1-2р., выручайте.
  

Снегоуборщик / Cold Pursuit (Ханс Петтер Муланд) [2019, Боевик, триллер, драма, UHD BDRip 2160p] DUB [iTunes] + MVO [СВ Студия] pb.wtf

Снегоуборщик через торрент pb.wtf

Раздают: 6 [ 948 KB/s ]
Размер: 17.12 GB | Добавлен: 1 мес. 4 д. назад | Торрент скачан:66 раз
Скачать  

13-05-2019 02:25 Снегоуборщик Скачать торрент  

Снегоуборщик / Cold Pursuit««Он убирает снег и… наркодилеров»»

Год выпуска: 2019
Страна: Великобритания,
Жанр: Боевик, триллер, драма
Продолжительность: 01:59:00
Перевод: Дублированный, профессиональный многоголосый
Субтитры: Русские (Full), английские
Режиссер: Ханс Петтер Муланд
В ролях:

Лиам Нисон (Nels Coxman), Лора Дерн (Grace Coxman), Эмми Россам (Kim Dash), Том Бейтман (Trevor «Viking» Calcote), Уильям Форсайт (Brock), Джулия Джонс (Aya), Майкл Нисон (Kyle Coxman), Майкл Эклунд (Speedo), Брэдли Страйкер (Limbo), Уэсли МакИннес (Dante), Доменик Ломбардоззи (Mustang), Николас Холмс (Ryan)
Описание:
Мистер Коксман - примерный семьянин и уважаемый гражданин, размеренная жизнь которого заканчивается, когда наркоторговцы убивают его сына. В поисках справедливости он с ледяным хладнокровием начинает изощренно убирать бандитов одного за другим.
Рейтинг:

MPAA: R - Лицам до 17 лет обязательно присутствие взрослого
Качество: UHD BDRip 2160p
Формат: MKV
Видео: HEVC HDR, 15.4 Мбит/с, 3840x1600, 23.976 кадр/с, 10 бит
Аудио: Русский (АС3, 6ch, 384 Кбит/с, 48.0 KHz) Дублированный | Лицензия_iTunes
Аудио: Русский (АС3, 2ch, 192 Кбит/с, 48.0 KHz) Профессиональный многоголосый | СВ Студия
Аудио: Английский (TrueHD, 8ch, Кбит/с, 48.0 KHz)
Аудио: Английский (АС3, 6ch, 640 Кбит/с, 48.0 KHz)
Навигация по главам: есть

Общее
Уникальный идентификатор : 207734261898843861183625834483988077153 (0x9C4829DE30E8BE3790BD52A65DE89A61)
Полное имя : E:\Cold Pursuit 2019.UHD.BDRip.x265.HDR.10bit.Master5.mkv
Формат : Matroska
Версия формата : Version 4 / Version 2
Размер файла : 17,1 Гбайт
Продолжительность : 1 ч. 59 м.
Режим общего битрейта : Переменный
Общий поток : 20,6 Мбит/сек
Название фильма : Cold Pursuit 2019.UHD.BDRip.x265.HDR.10bit.Master5
Дата кодирования : UTC 2019-05-10 06:35:26
Программа кодирования : mkvmerge v7.9.0 ('Birds') 64bit
Библиотека кодирования : libebml v1.3.1 + libmatroska v1.4.2

Видео
Идентификатор : 1
Формат : HEVC
Формат/Информация : High Efficiency Video Coding
Коммерческое название : HDR10
Профиль формата : Main 10@L5.1@High
Идентификатор кодека : V_MPEGH/ISO/HEVC
Продолжительность : 1 ч. 59 м.
Битрейт : 15,4 Мбит/сек
Ширина : 3840 пикселей
Высота : 1600 пикселей
Соотношение сторон : 2,40:1
Режим частоты кадров : Постоянный
Частота кадров : 23,976 (24000/1001) кадра/сек
Цветовое пространство : YUV
Субдискретизация насыщенности : 4:2:0
Битовая глубина : 10 бит
Бит/(Пиксели*Кадры) : 0.104
Размер потока : 12,8 Гбайт (75%)
Заголовок : Cold Pursuit 2019.UHD.BDRip.x265.HDR.10bit.Master5
Язык : English
Default : Да
Forced : Нет
Цветовой диапазон : Limited
Основные цвета : BT.2020
Характеристики трансфера : PQ
Коэффициенты матрицы : BT.2020 non-constant
MasteringDisplay_ColorPrimaries : Display P3
MasteringDisplay_Luminance : min: 0.0001 cd/m2, max: 1000 cd/m2
MaxCLL : 1000 cd/m2
MaxFALL : 288 cd/m2

Аудио #1
Идентификатор : 2
Формат : AC-3
Формат/Информация : Audio Coding 3
Идентификатор кодека : A_AC3
Продолжительность : 1 ч. 58 м.
Вид битрейта : Постоянный
Битрейт : 384 Кбит/сек
Каналы : 6 каналов
Расположение каналов : Front: L C R, Side: L R, LFE
Частота : 48,0 КГц
Частота кадров : 31,250 кадров/сек (1536 SPF)
Битовая глубина : 16 бит
Метод сжатия : С потерями
Размер потока : 327 Мбайт (2%)
Заголовок : iTunes
Язык : Russian
ServiceKind/String : Complete Main
Default : Да
Forced : Да

Аудио #2
Идентификатор : 3
Формат : AC-3
Формат/Информация : Audio Coding 3
Идентификатор кодека : A_AC3
Продолжительность : 1 ч. 58 м.
Вид битрейта : Постоянный
Битрейт : 192 Кбит/сек
Каналы : 2 канала
Расположение каналов : Front: L R
Частота : 48,0 КГц
Частота кадров : 31,250 кадров/сек (1536 SPF)
Битовая глубина : 16 бит
Метод сжатия : С потерями
Размер потока : 163 Мбайт (1%)
Заголовок : MVO СВ Студия
Язык : Russian
ServiceKind/String : Complete Main
Default : Нет
Forced : Нет

Аудио #3
Идентификатор : 4
Формат : TrueHD
Профиль формата : TrueHD+Atmos / TrueHD
Идентификатор кодека : A_TRUEHD
Продолжительность : 1 ч. 59 м.
Вид битрейта : Переменный
Битрейт : 3955 Кбит/сек
Максимальный битрейт : 6264 Кбит/сек
Каналы : Object Based / 8 каналов
Расположение каналов : Object Based / Front: L C R, Side: L R, Back: L R, LFE
Частота : / 48,0 КГц
Частота кадров : 1200,000 кадров/сек (40 SPF)
Метод сжатия : Без потерь
Размер потока : 3,29 Гбайт (19%)
Заголовок : TrueHD Atmos 7.1
Язык : English
Default : Нет
Forced : Нет

Аудио #4
Идентификатор : 5
Формат : AC-3
Формат/Информация : Audio Coding 3
Идентификатор кодека : A_AC3
Продолжительность : 1 ч. 59 м.
Вид битрейта : Постоянный
Битрейт : 640 Кбит/сек
Каналы : 6 каналов
Расположение каналов : Front: L C R, Side: L R, LFE
Частота : 48,0 КГц
Частота кадров : 31,250 кадров/сек (1536 SPF)
Битовая глубина : 16 бит
Метод сжатия : С потерями
Размер потока : 545 Мбайт (3%)
Заголовок : Original
Язык : English
ServiceKind/String : Complete Main
Default : Нет
Forced : Нет

Текст #1
Идентификатор : 6
Формат : UTF-8
Идентификатор кодека : S_TEXT/UTF8
Идентификатор кодека/Информация : UTF-8 Plain Text
Продолжительность : 1 ч. 49 м.
Битрейт : 62 бит/сек
ElementCount : 979
Размер потока : 50,3 Кбайт (0%)
Заголовок : Full
Язык : Russian
Default : Нет
Forced : Нет

Текст #2
Идентификатор : 7
Формат : UTF-8
Идентификатор кодека : S_TEXT/UTF8
Идентификатор кодека/Информация : UTF-8 Plain Text
Продолжительность : 1 ч. 47 м.
Битрейт : 40 бит/сек
ElementCount : 968
Размер потока : 31,9 Кбайт (0%)
Язык : English
Default : Нет
Forced : Нет

Меню
00:00:00.000 : en:Chapter 01
00:07:26.946 : en:Chapter 02
00:13:19.257 : en:Chapter 03
00:21:35.211 : en:Chapter 04
00:29:35.649 : en:Chapter 05
00:38:18.880 : en:Chapter 06
00:45:11.876 : en:Chapter 07
00:53:08.310 : en:Chapter 08
01:01:23.513 : en:Chapter 09
01:05:46.359 : en:Chapter 10
01:14:04.857 : en:Chapter 11
01:22:21.186 : en:Chapter 12
01:31:40.954 : en:Chapter 13
01:38:46.879 : en:Chapter 14
01:45:20.939 : en:Chapter 15
01:47:43.540 : en:Chapter 16
pb.wtf



Скачать Снегоуборщик через торрент https://b.radikal.ru/b14/1905/ef/e3f0640c9c2e.png Скачать фильм Снегоуборщик через торрент бесплантно в хорошем качестве Описание: Мистер Коксман - примерный семьянин и уважаемый гражданин, размеренная жизнь которого заканчивается, когда наркоторговцы убивают ... 10 10 5
Торрент: Зарегистрирован [2019-05-13 02:25] · скачан: 66 раз
Статус: √ проверено
Размер: 17.12 GB
Как cкачать? Как скачать Снегоуборщик через торрент | qTorrent

% Раздел Тема Автор DL S | L
Фильмы 2019 [DVDrip, WEB-DLRip, HDrip] (DUB, MVO) [ 1.46 GB ] Снегоуборщик / Cold Pursuit [2019 HDRip] killermax2013 Скачать
156 | 0
Фильмы [HD 720p, 1080p] (Хороший звук DUB, MVO) [ 11.74 GB ] Снегоуборщик / Cold Pursuit [2019 BDRip 1080p] + [MVO] killermax2013 Скачать
40 | 0
Фильмы [HD 720p, 1080p] (Хороший звук DUB, MVO) [ 6.31 GB ] Снегоуборщик / Cold Pursuit [2019 BDRip 720p ] Quadropedia Скачать
22 | 0
T Фильмы (WEB-DL 720p, 1080p) [ 4.28 GB ] Снегоуборщик / Cold Pursuit [2019 WEB-DL 1080p] MVO [CВ Студия] -Lexx- Скачать
38 | 0
Ultra HD (UHD: 2K, 4K, 8K) — видео сверхвысокой чёткости [ 74.22 GB ] Снегоуборщик / Cold Pursuit [2019 UHD Blu-ray 2160p] [Dolby Vision] sheker187 Скачать
2 | 0
Ultra HD (UHD: 2K, 4K, 8K) — видео сверхвысокой чёткости [ 55.88 GB ] Снегоуборщик / Cold Pursuit [2019 UHD BDRemux 2160p] + MVO [СВ Студия] sheker187 Скачать
7 | 0
T Фильмы (WEB-DL 720p, 1080p) [ 3.11 GB ] Снегоуборщик / Cold Pursuit [2019 WEBRip 720p] MVO [СВ Студия] bober100 Скачать
7 | 0


>> Регистрируемся здесь <<






Отзывы и комментарии о схеме читаем и пишем здесь: ---> Отзывы и комментарии о схеме

Новые благодарочки в телеграм довольных пользователей:
скриншот   скриншот   скриншот   скриншот   скриншот
    Дорогой пользователь! Огромная просьба, поблагодарите релизера, оцените раздачу и оставьте свои комментарий, если Вы скачали Снегоуборщик через торрент бесплатно! Внесите свою лепту в развитие PiratBit!
    Комментировать посты могут только пользователи прошедшие не сложную регистрацию
    Показать сообщения:    

    Снегоуборщик через торрент
    Скачать бесплатно Снегоуборщик
    Снегоуборщик скачать торрент
    Снегоуборщик смотреть онлайн
    Cкачать фильм Снегоуборщик бесплатно
    Снегоуборщик скачать торрент в хорошем качестве
    Снегоуборщик смотреть онлайн бесплатно в хорошем качестве


    Вы не можете начинать темы
    Вы не можете отвечать на сообщения
    Вы не можете редактировать свои сообщения
    Вы не можете удалять свои сообщения
    Вы не можете голосовать в опросах
    Вы не можете прикреплять файлы к сообщениям
    Вы можете скачивать файлы