Ссылка на приватное зеркало нашего сайта всего за 1$. Внимание количество ограничено!!!

2 сезон

iTunes

1 сезон

1

2 сезон

2 сезон

iTunes

1 сезон

RePack

30

Ultimate

ВАЖНО

ИГРА 18+

pack

RePack

MK11
pack

Забери бонус

RePack

jed

!!Акция!!

Alien_Rage

RePack

fifa19

RePack

Assassins Creed: Odyssey

RePack

NEED FOR SPEED™ PAYBACK

4 сезон

9 сезон

Бесстыжие 9 сезон

Все сериалы

все сериалы на PB.wtf

RePack

FAR CRY 5
  

Черный ястреб / Падение Чёрного ястреба / Black Hawk Down (Ридли Скотт) [2001, Боевик, драма, военный, история, реальные события, UHD BDRemux 2160p] MVO + DVO + 3xAVO [Расширенная версия] pb.wtf

Черный ястреб через торрент pb.wtf

Размер: 75.58 GB | Добавлен: 1 год 6 мес. назад | Торрент скачан:45 раз
Скачать  

13-05-2019 02:41 Черный ястреб Скачать торрент  

Черный ястреб / Black Hawk Down«Спецназ не сдается. Он выполняет приказ или погибает»

Год выпуска: 2001
Страна: США,
Жанр: Боевик, драма, военный, история, реальные события
Продолжительность: 02:31:50
Перевод: Профессиональный многоголосый, профессиональный двухголосый, авторский
Субтитры: Русские (Полные), Английские (Форсированные, полные, полные SDH)
Режиссер: Ридли Скотт
В ролях:

Джош Хартнетт (Eversmann), Юэн МакГрегор (Grimes), Эрик Бана (Hoot), Уильям Фихтнер (Sanderson), Сэм Шепард (Garrison), Джейсон Айзекс (Steele), Том Сайзмор (McKnight), Рон Элдард (Durant), Том Харди (Twombly), Николай Костер-Вальдау (Gordon), Йоан Гриффит (Beales), Ким Коутс (Wex)
Описание:
Сомали, 1993 год. Страна вымирает от голода, число жертв превысило триста тысяч человек. Миротворческие силы ООН пытаются восстановить порядок и организовать поставки продовольствия. В помощь им Вашингтон выслал полтысячи человек из элитных подразделений американской армии, знаменитые отряды «Дельта» и армейских рейнджеров.
Рейтинг:

MPAA: R - Лицам до 17 лет обязательно присутствие взрослого
Качество: UHD BDRemux 2160p | Расширенная версия
Формат: MKV
Видео: HEVC HDR, 51.7 Мбит/с, 3840x2160, 23.976 Кадр/с, 10 бит
Аудио №1: Russian / Dolby Digital Audio / 5.1 / 48 kHz / 448 kbps Киномания
Аудио №2: Russian / DTS-HD Master Audio / 5.1 / 48 kHz / 2415 kbps Гланц и Королёва
Аудио №3: Russian / DTS-HD Master Audio / 5.1 / 48 kHz / 2423 kbps Володарский
Аудио №4: Russian / DTS-HD Master Audio / 5.1 / 48 kHz / 2419 kbps Королёв
Аудио №5: Russian / DTS-HD Master Audio / 5.1 / 48 kHz / 2420 kbps Немахов
Аудио №6: English / Dolby TrueHD with Dolby Atmos / 7.1 / 48 kHz / 3947 kbps
Аудио №7: English / DTS-HD Master Audio / 7.1 / 48 kHz / 4760 kbps
Аудио №8: English / Dolby Digital Audio / 5.1 / 48 kHz / 640 kbps
Навигация по главам: Есть

General
Unique ID : 300047153216395107628399102222660592969 (0xE1BAFACE5309DA61F0186C677BF0E549)
Complete name : X:\Releases\Black.Hawk.Down.2001.EXTENDED.BDREMUX.HEVC.HDR.2160p (1).mkv
Format : Matroska
Format version : Version 4
File size : 75.6 GiB
Duration : 2 h 31 min
Overall bit rate mode : Variable
Overall bit rate : 71.3 Mb/s
Encoded date : UTC 2019-05-07 17:52:10
Writing application : mkvmerge v33.1.0 ('Primrose') 64-bit
Writing library : libebml v1.3.7 + libmatroska v1.5.0
Attachments : poster.jpg

Video
ID : 1
Format : HEVC
Format/Info : High Efficiency Video Coding
Commercial name : HDR10
Format profile : Main 10@L5.1@High
Codec ID : V_MPEGH/ISO/HEVC
Duration : 2 h 31 min
Bit rate : 51.7 Mb/s
Width : 3 840 pixels
Height : 2 160 pixels
Display aspect ratio : 16:9
Frame rate mode : Constant
Frame rate : 23.976 (24000/1001) FPS
Color space : YUV
Chroma subsampling : 4:2:0 (Type 2)
Bit depth : 10 bits
Bits/(Pixel*Frame) : 0.260
Stream size : 54.8 GiB (73%)
Language : English
Default : No
Forced : No
Color range : Limited
Color primaries : BT.2020
Transfer characteristics : PQ
Matrix coefficients : BT.2020 non-constant
Mastering display color pri : Display P3
Mastering display luminance : min: 0.0050 cd/m2, max: 4000 cd/m2
Maximum Content Light Level : 4000 cd/m2
Maximum Frame-Average Light : 1391 cd/m2

Audio #1
ID : 2
Format : AC-3
Format/Info : Audio Coding 3
Commercial name : Dolby Digital
Codec ID : A_AC3
Duration : 2 h 31 min
Bit rate mode : Constant
Bit rate : 448 kb/s
Channel(s) : 6 channels
Channel layout : L R C LFE Ls Rs
Sampling rate : 48.0 kHz
Frame rate : 31.250 FPS (1536 SPF)
Bit depth : 16 bits
Compression mode : Lossy
Delay relative to video : 11 ms
Stream size : 487 MiB (1%)
Title : MVO Киномания
Language : Russian
Service kind : Complete Main
Default : Yes
Forced : No

Audio #2
ID : 3
Format : DTS XLL
Format/Info : Digital Theater Systems
Commercial name : DTS-HD Master Audio
Codec ID : A_DTS
Duration : 2 h 31 min
Bit rate mode : Variable
Bit rate : 2 415 kb/s
Channel(s) : 6 channels
Channel layout : C L R Ls Rs LFE
Sampling rate : 48.0 kHz
Frame rate : 93.750 FPS (512 SPF)
Bit depth : 16 bits
Compression mode : Lossless
Stream size : 2.56 GiB (3%)
Title : DVO Гланц и Королёва
Language : Russian
Default : No
Forced : No

Audio #3
ID : 4
Format : DTS XLL
Format/Info : Digital Theater Systems
Commercial name : DTS-HD Master Audio
Codec ID : A_DTS
Duration : 2 h 31 min
Bit rate mode : Variable
Bit rate : 2 423 kb/s
Channel(s) : 6 channels
Channel layout : C L R Ls Rs LFE
Sampling rate : 48.0 kHz
Frame rate : 93.750 FPS (512 SPF)
Bit depth : 16 bits
Compression mode : Lossless
Stream size : 2.57 GiB (3%)
Title : AVO Володарский
Language : Russian
Default : No
Forced : No

Audio #4
ID : 5
Format : DTS XLL
Format/Info : Digital Theater Systems
Commercial name : DTS-HD Master Audio
Codec ID : A_DTS
Duration : 2 h 31 min
Bit rate mode : Variable
Bit rate : 2 419 kb/s
Channel(s) : 6 channels
Channel layout : C L R Ls Rs LFE
Sampling rate : 48.0 kHz
Frame rate : 93.750 FPS (512 SPF)
Bit depth : 16 bits
Compression mode : Lossless
Stream size : 2.57 GiB (3%)
Title : AVO Королёв
Language : Russian
Default : No
Forced : No

Audio #5
ID : 6
Format : DTS XLL
Format/Info : Digital Theater Systems
Commercial name : DTS-HD Master Audio
Codec ID : A_DTS
Duration : 2 h 31 min
Bit rate mode : Variable
Bit rate : 2 420 kb/s
Channel(s) : 6 channels
Channel layout : C L R Ls Rs LFE
Sampling rate : 48.0 kHz
Frame rate : 93.750 FPS (512 SPF)
Bit depth : 16 bits
Compression mode : Lossless
Stream size : 2.57 GiB (3%)
Title : AVO Немахов
Language : Russian
Default : No
Forced : No

Audio #6
ID : 7
Format : MLP FBA 16-ch
Format/Info : Meridian Lossless Packing FBA with 16-channel presentation
Commercial name : Dolby TrueHD with Dolby Atmos
Codec ID : A_TRUEHD
Duration : 2 h 31 min
Bit rate mode : Variable
Bit rate : 3 947 kb/s
Maximum bit rate : 6 000 kb/s
Channel(s) : 8 channels
Channel layout : L R C LFE Ls Rs Lb Rb
Sampling rate : 48.0 kHz
Frame rate : 1 200.000 FPS (40 SPF)
Compression mode : Lossless
Stream size : 4.19 GiB (6%)
Title : Original THD
Language : English
Default : No
Forced : No
Number of dynamic objects : 11
Bed channel count : 1 channel
Bed channel configuration : LFE

Audio #7
ID : 8
Format : DTS XLL
Format/Info : Digital Theater Systems
Commercial name : DTS-HD Master Audio
Codec ID : A_DTS
Duration : 2 h 31 min
Bit rate mode : Variable
Bit rate : 4 760 kb/s
Channel(s) : 8 channels
Channel layout : C L R LFE Lb Rb Lss Rss
Sampling rate : 48.0 kHz
Frame rate : 93.750 FPS (512 SPF)
Bit depth : 24 bits
Compression mode : Lossless
Stream size : 5.05 GiB (7%)
Title : Original DTSMA
Language : English
Default : No
Forced : No

Audio #8
ID : 9
Format : AC-3
Format/Info : Audio Coding 3
Commercial name : Dolby Digital
Codec ID : A_AC3
Duration : 2 h 31 min
Bit rate mode : Constant
Bit rate : 640 kb/s
Channel(s) : 6 channels
Channel layout : L R C LFE Ls Rs
Sampling rate : 48.0 kHz
Frame rate : 31.250 FPS (1536 SPF)
Bit depth : 16 bits
Compression mode : Lossy
Stream size : 695 MiB (1%)
Title : Original DD
Language : English
Service kind : Complete Main
Default : No
Forced : No

Text #1
ID : 10
Format : UTF-8
Codec ID : S_TEXT/UTF8
Codec ID/Info : UTF-8 Plain Text
Duration : 2 h 24 min
Bit rate : 72 b/s
Count of elements : 1570
Stream size : 76.7 KiB (0%)
Title : Полные
Language : Russian
Default : No
Forced : No

Text #2
ID : 11
Format : UTF-8
Codec ID : S_TEXT/UTF8
Codec ID/Info : UTF-8 Plain Text
Duration : 1 h 50 min
Bit rate : 0 b/s
Count of elements : 12
Stream size : 238 Bytes (0%)
Title : English-FORCED-SRT
Language : English
Default : Yes
Forced : Yes

Text #3
ID : 12
Format : UTF-8
Codec ID : S_TEXT/UTF8
Codec ID/Info : UTF-8 Plain Text
Duration : 2 h 24 min
Bit rate : 50 b/s
Count of elements : 1687
Stream size : 53.5 KiB (0%)
Title : English-SRT
Language : English
Default : No
Forced : No

Text #4
ID : 13
Format : UTF-8
Codec ID : S_TEXT/UTF8
Codec ID/Info : UTF-8 Plain Text
Duration : 2 h 30 min
Bit rate : 53 b/s
Count of elements : 1923
Stream size : 58.5 KiB (0%)
Title : English-SDH-SRT
Language : English
Default : No
Forced : No

Menu
00:00:00.000 : en:Chapter 01
00:21:48.682 : en:Chapter 02
00:31:39.939 : en:Chapter 03
00:39:19.940 : en:Chapter 04
00:43:25.519 : en:Chapter 05
00:54:04.074 : en:Chapter 06
01:02:18.317 : en:Chapter 07
01:10:22.051 : en:Chapter 08
01:28:36.811 : en:Chapter 09
01:30:26.671 : en:Chapter 10
01:43:36.376 : en:Chapter 11
01:48:49.648 : en:Chapter 12
02:02:18.873 : en:Chapter 13
02:06:20.489 : en:Chapter 14
02:11:28.630 : en:Chapter 15
02:20:13.029 : en:Chapter 16
pb.wtf



Скачать Черный ястреб через торрент https://b.radikal.ru/b30/1905/09/29b03aa20fef.png Скачать фильм Черный ястреб через торрент бесплантно в хорошем качестве Описание: Сомали, 1993 год. Страна вымирает от голода, число жертв превысило триста тысяч человек. Миротворческие силы ООН пытаются ... 10 10 6
Торрент: Зарегистрирован [2019-05-13 02:41] · скачан: 45 раз
Статус: √ проверено
Размер: 75.58 GB
Как cкачать? Как скачать Черный ястреб через торрент | qTorrent

% Раздел Тема Автор DL S | L
Фильмы (HD 720p, 1080p) (48-60 fps) [ 8.64 GB ] Чёрный ястреб / Падение Чёрного ястреба / Black Hawk Down [2001 военный [Extended Cut] / JPN Transfer BDRip-HEVC 1080p 60fps MVO] Tiberiumsun69 Скачать
28 | 1
Ultra HD (UHD: 2K, 4K, 8K) — видео сверхвысокой чёткости [ 84.38 GB ] Черный ястреб / Падение Чёрного ястреба / Black Hawk Down [2001 военный история реальные события UHD Blu-ray EUR 2160p] [Театральная и расширенная версия] DUB [] sheker187 Скачать
1 | 0
Фильмы (HD 720p, 1080p) (48-60 fps) [ 15.84 GB ] Черный ястреб / Падение чёрного ястреба / Black Hawk Down [2001 военный BDRip 1080p / 60 FPS ] Tiberiumsun69 Скачать
2 | 0
Фильмы [HD 720p, 1080p] (Хороший звук DUB, MVO) [ 7.96 GB ] Черный ястреб / Падение Чёрного ястреба / Black Hawk Down [2001 военный BDRip 720p +MVOAVO _denis_100 Скачать
1 | 0
Фильмы [HD 720p, 1080p] (Хороший звук DUB, MVO) [ 4.82 GB ] Черный ястреб / Падение черного ястреба / Black Hawk Down [2001 BDRip-AVC] [720p] Kristian Larsson Скачать
4 | 0

28-11-2019 20:33  

Отключить всю рекламу на сайте

    Дорогой пользователь! Огромная просьба, поблагодарите релизера, оцените раздачу и оставьте свои комментарий, если Вы скачали Черный ястреб через торрент бесплатно! Внесите свою лепту в развитие PiratBit!
    Комментировать посты могут только пользователи прошедшие не сложную регистрацию
    Показать сообщения:    

    Черный ястреб через торрент
    Скачать бесплатно Черный ястреб
    Черный ястреб скачать торрент
    Черный ястреб смотреть онлайн
    Cкачать фильм Черный ястреб бесплатно
    Черный ястреб скачать торрент в хорошем качестве
    Черный ястреб смотреть онлайн бесплатно в хорошем качестве


    Вы не можете начинать темы
    Вы не можете отвечать на сообщения
    Вы не можете редактировать свои сообщения
    Вы не можете удалять свои сообщения
    Вы не можете голосовать в опросах
    Вы не можете прикреплять файлы к сообщениям
    Вы можете скачивать файлы