Всегда рабочее зеркало без VPN и Proxy просто перед .vidak.icu напиши любое слово или цифру, Пример http://qitz.vidak.icu

Лицензия

MVO

1 сезон

1

1 сезон

iTunes

1 сезон

13

1 сезон

Deluxe

pack

Рекомендуем

Repack

30

ВАЖНО

RePack

MK11

RePack

jed

RePack

fifa19

RePack

RDR2

RePack

NEED FOR SPEED™ PAYBACK

Кинопоиск HD

6 сезон

 Острые козырьки 6 сезон

Все сериалы

все сериалы на PB.wtf

RePack

FAR CRY 5
  
Magnet ссылка

Ганнибал / Hannibal (Ридли Скотт) [2001, Триллер, драма, криминал, детектив, UHD BDRemux 2160p] DUB [Dolby Vision] pb.wtf

Ганнибал через торрент pb.wtf

Размер: 69.03 GB | Добавлен: 3 года 3 мес. назад | Торрент скачан:12 раз
Смотреть онлайн Ганнибал | Скачать    Ребята, помогите собрать деньги на оплату серверов!!!

13-05-2019 03:48 Ганнибал Скачать торрент  

Ганнибал / Hannibal««Молчание будет нарушено»»

Год выпуска: 2001
Страна: США,
Жанр: Триллер, драма, криминал, детектив
Продолжительность: 02:11:26
Перевод: Дублированный
Субтитры: Отсутствуют
Режиссер: Ридли Скотт
В ролях:

Энтони Хопкинс (Hannibal Lecter), Джулианна Мур (Clarice Starling), Гари Олдман (Mason Verger), Рэй Лиотта (Paul Krendler), Джанкарло Джаннини (Insp. Rinaldo Pazzi), Фрэнки Фэйзон (Nurse Barney), Франческа Нери (Allegra Pazzi), Желько Иванек (Dr. Cordell Doemling), Хазелль Гудман (Evelda Drumgo), Дэвид Эндрюс (FBI Agent Pearsall), Френсис Гуинан (FBI Asst. Director Noonan), Джеймс Офер (DEA Agent John Eldridge)
Описание:
По прошествии десяти лет тревожного молчания гениальный Ганнибал Лектер пишет письмо агенту ФБР Кларисе Старлинг, предлагая ей возобновить их прервавшуюся интеллектуальную дуэль.
Рейтинг:

MPAA: R - Лицам до 17 лет обязательно присутствие взрослого
Качество: UHD BDRemux 2160p
Формат: MP4
Видео: HEVC HDR, 67.5 Mбит/с, 3840x2160, 24 кадр/с
Аудио #1: AC-3, 48.0 kHz, 6 ch, 448 kb/s, CBR (Russian) | Дублированный |

Релиз от: > Ivantsov
Данный вид релизов (контейнер MP4) предназначен для встроенного в ТВ (соответственно, с поддержкой DV) плеер.
Т.Е. Можно использовать как USB flash/HDD, так и DLNA / Plex - подобные сервисы/программы. дополнительный-внешний плеер не обязателен.

Внимание!
На моделях LG 2016 возможны сюрпризы "через раз", 2017-2018 должно идти без сюрпризов )
Общее
Полное имя : Hannibal.2001.UHD.BDRemux.2160p.DV.IVA.RUS.ExKinoRay.mp4
Формат : MPEG-4
Профиль формата : Base Media / Version 2
Идентификатор кодека : mp42 (mp42/iso6/isom/msdh/dby1)
Размер файла : 69,0 Гбайт
Продолжительность : 2 ч. 11 м.
Общий поток : 75,2 Мбит/сек
Дата кодирования : UTC 2019-05-10 12:42:10
Дата пометки : UTC 2019-05-10 12:42:10

Видео #1
Идентификатор : 1
Формат : HEVC
Формат/Информация : High Efficiency Video Coding
Профиль формата : Main [email protected]@High
HDR_Format : SMPTE ST 2086, HDR10 compatible
Идентификатор кодека : hev1
Идентификатор кодека/Информация : High Efficiency Video Coding
Продолжительность : 2 ч. 11 м.
Битрейт : 67,5 Мбит/сек
Ширина : 3840 пикселей
Высота : 2160 пикселей
Соотношение сторон : 16:9
Режим частоты кадров : Постоянный
Частота кадров : 24,000 кадра/сек
Цветовое пространство : YUV
Субдискретизация насыщенности : 4:2:0 (Type 2)
Битовая глубина : 10 бит
Бит/(Пиксели*Кадры) : 0.339
Размер потока : 62,0 Гбайт (90%)
Default : Нет
Дата кодирования : UTC 2019-05-10 12:42:10
Дата пометки : UTC 2019-05-10 12:42:10
Цветовой диапазон : Limited
Основные цвета : BT.2020
Характеристики трансфера : PQ
Коэффициенты матрицы : BT.2020 non-constant
MasteringDisplay_ColorPrimaries : Display P3
MasteringDisplay_Luminance : min: 0.0001 cd/m2, max: 1000 cd/m2
MaxCLL : 1000 cd/m2
MaxFALL : 710 cd/m2
Codec configuration box : hvcC

Видео #2
Идентификатор : 2
Формат : HEVC
Формат/Информация : High Efficiency Video Coding
Профиль формата : Main [email protected]@High
HDR_Format : Dolby Vision, Version 1.0, dvhe.07.06, EL+RPU / SMPTE ST 2086, HDR10 compatible
Идентификатор кодека : dvhe
Идентификатор кодека/Информация : High Efficiency Video Coding with Dolby Vision
Продолжительность : 2 ч. 11 м.
Битрейт : 7233 Кбит/сек
Ширина : 1920 пикселей
Высота : 1080 пикселей
Соотношение сторон : 16:9
Режим частоты кадров : Постоянный
Частота кадров : 24,000 кадра/сек
Цветовое пространство : YUV
Субдискретизация насыщенности : 4:2:0 (Type 2)
Битовая глубина : 10 бит
Бит/(Пиксели*Кадры) : 0.145
Размер потока : 6,64 Гбайт (10%)
Default : Нет
Дата кодирования : UTC 2019-05-10 12:42:10
Дата пометки : UTC 2019-05-10 12:42:10
Цветовой диапазон : Limited
Основные цвета : BT.2020
Характеристики трансфера : PQ
Коэффициенты матрицы : BT.2020 non-constant
MasteringDisplay_ColorPrimaries : Display P3
MasteringDisplay_Luminance : min: 0.0001 cd/m2, max: 1000 cd/m2
Codec configuration box : hvcC+dvcC

Аудио
Идентификатор : 3
Формат : AC-3
Формат/Информация : Audio Coding 3
Коммерческое название : Dolby Digital
Идентификатор кодека : ac-3
Продолжительность : 2 ч. 11 м.
Вид битрейта : Постоянный
Битрейт : 448 Кбит/сек
Каналы : 6 каналов
ChannelLayout : L R C LFE Ls Rs
Частота : 48,0 КГц
Частота кадров : 31,250 кадров/сек (1536 SPF)
Битовая глубина : 16 бит
Метод сжатия : С потерями
Размер потока : 421 Мбайт (1%)
Язык : Russian
ServiceKind : Complete Main
Default : Нет
Дата кодирования : UTC 2019-05-10 12:42:10
Дата пометки : UTC 2019-05-10 12:42:10
pb.wtf



Скачать Ганнибал через торрент https://c.radikal.ru/c10/1905/22/504d5461a58f.png Скачать, смотреть онлайн Ганнибал бесплантно в хорошем качестве Описание: По прошествии десяти лет тревожного молчания гениальный Ганнибал Лектер пишет письмо агенту ФБР Кларисе Старлинг, предлагая ей ... 10 10 3
Торрент: Зарегистрирован [2019-05-13 03:48] · скачан: 12 раз
Статус: √ проверено
Размер: 69.03 GB
Как cкачать? Как скачать Ганнибал через торрент | UTorrent

% Раздел Тема Автор DL S | L
Сборники (HD Video) [ 23.43 GB ] Ганнибал Лектер: Квадрология / Hannibal Lecter: Quadrilogy [2007 2002 1991 2001 BDRip 720p] DUB + MVO + AVO от R.G. HD-Films -Lexx- Скачать
1 | 0
Зарубежные сериалы [ 22.11 GB ] Ганнибал / Hannibal / Сезон: 3 / Серии 1-13 из 13 [2015 WEB-DL 1080p] MVO [BaibaKo] GEKADOL Скачать
1 | 0
Зарубежные сериалы [ 21.68 GB ] Ганнибал / Hannibal / Сезон: 2 / Серии 1-13 из 13 [2014 WEB-DL 1080]MVO GEKADOL Скачать
1 | 0
Зарубежные сериалы [ 9.35 GB ] Ганнибал / Hannibal / Сезон: 1 / Серии: 1-13 из 13 [2013 HDRip] MVO [TVShows] bober100 Скачать
1 | 0
Зарубежные сериалы [ 40.38 GB ] Ганнибал / Hannibal / Сезон: 1 / Серии: 1-13 из 13 [2013 BDRip 1080p] MVO [TVShows] bober100 Скачать
1 | 0
Зарубежные сериалы [ 20.46 GB ] Ганнибал / Hannibal / Сезон: 1 / Серии: 1-13 из 13 [2013 BDRip 720p] MVO [TVShows] bober100 Скачать
1 | 0
Ultra HD (UHD: 2K, 4K, 8K) — видео сверхвысокой чёткости [ 94.2 GB ] Ганнибал / Hannibal [2001 UHD Blu-ray 2160p] [Dolby Vision] DUB + 2xMVO + 2xAVO sheker187 Скачать
1 | 0

28-11-2019 20:33  

Отключить вcю реклaмy на сайте

    Дорогой пользователь! Огромная просьба, поблагодарите релизера, оцените раздачу и оставьте свои комментарий, если Вы скачали Ганнибал через торрент бесплатно!
    Комментировать посты могут только пользователи прошедшие не сложную регистрацию
    Показать сообщения:    

    Ганнибал через торрент
    Скачать бесплатно Ганнибал
    Ганнибал скачать торрент
    Ганнибал смотреть онлайн
    Cкачать фильм Ганнибал бесплатно
    Ганнибал скачать торрент в хорошем качестве
    Ганнибал смотреть онлайн бесплатно в хорошем качестве


    Вы не можете начинать темы
    Вы не можете отвечать на сообщения
    Вы не можете редактировать свои сообщения
    Вы не можете удалять свои сообщения
    Вы не можете голосовать в опросах
    Вы не можете прикреплять файлы к сообщениям
    Вы можете скачивать файлы