Ссылка на приватное зеркало нашего сайта всего за 1$. Внимание количество ограничено!!!

2 сезон

iTunes

1 сезон

1

iTunes

iTunes

iTunes

1 сезон

RePack

30

ИГРА 18+

pack

ВАЖНО

!!Акция!!

Alien_RageХит недели

RePack

MK11
pack

Забери бонус

RePack

jed

!!Акция!!

Alien_Rage

RePack

fifa19

RePack

Assassins Creed: Odyssey

RePack

NEED FOR SPEED™ PAYBACK

4 сезон

9 сезон

Бесстыжие 9 сезон

Все сериалы

все сериалы на PB.wtf

RePack

FAR CRY 5
  

Хеллбой II: Золотая армия / Hellboy II: The Golden Army (Гильермо дель Торо) [2008, Фантастика, фэнтези, боевик, приключения, UHD BDRemux 2160p] Дубляж pb.wtf

Хеллбой II: Золотая армия через торрент pb.wtf

Размер: 51.52 GB | Добавлен: 1 год 5 мес. назад | Торрент скачан:44 раза
Скачать  

13-05-2019 04:51 Хеллбой II: Золотая армия Скачать торрент  

Хеллбой II: Золотая армия / Hellboy II: The Golden Army««Золотая орда»»

Год выпуска: 2008
Страна: США,
Жанр: Фантастика, фэнтези, боевик, приключения
Продолжительность: 01:59:40
Перевод: Дублированный
Субтитры: Русские, английские
Режиссер: Гильермо дель Торо
В ролях:

Рон Перлман (Hellboy), Сэльма Блэр (Liz Sherman), Даг Джонс (Abe Sapien / Chamberlain / Angel of Death), Джон Александр (Johann Krauss / Bethmoora Goblin), Джеймс Додд (Johann Krauss), Сет МакФарлейн (Johann, озвучка), Люк Госс (Prince Nuada), Анна Уолтон (Princess Nuala), Джеффри Тэмбор (Tom Manning), Джон Хёрт (Professor Broom), Брайан Стил (Wink / Cronie / Spice Shop Troll / Cathedral Head / Fragglewump), Эндрю Хефлер (Agent Flint)
Описание:
Древнее перемирие между человечеством и тайным миром было нарушено, на Земле вот-вот разверзнется ад. Безжалостный лидер, вхожий в оба мира, бросает вызов своей крови и пробуждает на свет неодолимую армию чудовищ.
Рейтинг:

MPAA: PG-13 - Детям до 13 лет просмотр не желателен
Качество: UHD BDRemux 2160p
Формат: MKV
Видео: HEVC HDR, 53.0 Мбит/с, 3840x2160, 23.976 кадр/с
Аудио: Russian / DTS Audio / 5.1 / 48 kHz / 768 kbps / 24-bit_Лицензия
Аудио: English / DTS:X Master Audio / 7.1 / 48 kHz / 7374 kbps /
Аудио: English / Dolby Digital Audio / 2.0 / 48 kHz / 192 kbps / (Комментарий режиссера Гильермоделя Торо)
Аудио: English / Dolby Digital Audio / 2.0 / 48 kHz / 192 kbps / (Комментарий актеров Джеффри Тамбора, Сельмы Блэр и Люка Гросса)
Навигация по главам: Есть

Общее
Уникальный идентификатор : 208065450197525962343858645805093464934 (0x9C87F2B63566FFA1B67ED49389B5AB66)
Полное имя : E:\Hellboy.II.The.Golden.Army.2008.2160p.BDREMUX.HEVC.HDR.x265.Master5.mkv
Формат : Matroska
Версия формата : Version 4 / Version 2
Размер файла : 51,5 Гбайт
Продолжительность : 1 ч. 59 м.
Общий поток : 61,6 Мбит/сек
Название фильма : Hellboy.II.The.Golden.Army.2008.2160p.BDREMUX.HEVC.HDR.x265.Master5
Дата кодирования : UTC 2019-05-09 13:49:03
Программа кодирования : mkvmerge v7.9.0 ('Birds') 64bit
Библиотека кодирования : libebml v1.3.1 + libmatroska v1.4.2
Обложка : Yes
Attachments : small_cover.jpg / small_cover_land.jpg / cover.jpg / cover_land.jpg

Видео
Идентификатор : 1
Формат : HEVC
Формат/Информация : High Efficiency Video Coding
Коммерческое название : HDR10
Профиль формата : Main 10@L5.1@High
Идентификатор кодека : V_MPEGH/ISO/HEVC
Продолжительность : 1 ч. 59 м.
Битрейт : 53,0 Мбит/сек
Ширина : 3840 пикселей
Высота : 2160 пикселей
Соотношение сторон : 16:9
Режим частоты кадров : Постоянный
Частота кадров : 23,976 (24000/1001) кадра/сек
Цветовое пространство : YUV
Субдискретизация насыщенности : 4:2:0 (Type 2)
Битовая глубина : 10 бит
Бит/(Пиксели*Кадры) : 0.267
Размер потока : 44,3 Гбайт (86%)
Заголовок : Hellboy.II.The.Golden.Army.2008.2160p.BDREMUX.HEVC.HDR.x265.Master5
Язык : English
Default : Нет
Forced : Нет
Цветовой диапазон : Limited
Основные цвета : BT.2020
Характеристики трансфера : PQ
Коэффициенты матрицы : BT.2020 non-constant
MasteringDisplay_ColorPrimaries : Display P3
MasteringDisplay_Luminance : min: 0.0050 cd/m2, max: 1000 cd/m2
MaxCLL : 1000 cd/m2
MaxFALL : 98 cd/m2

Аудио #1
Идентификатор : 2
Формат : DTS
Формат/Информация : Digital Theater Systems
Идентификатор кодека : A_DTS
Продолжительность : 1 ч. 59 м.
Вид битрейта : Постоянный
Битрейт : 768 Кбит/сек
Каналы : 6 каналов
Расположение каналов : Front: L C R, Side: L R, LFE
Частота : 48,0 КГц
Частота кадров : 93,750 кадра/сек (512 SPF)
Битовая глубина : 24 бит
Метод сжатия : С потерями
Размер потока : 657 Мбайт (1%)
Язык : Russian
Default : Нет
Forced : Да

Аудио #2
Идентификатор : 3
Формат : DTS
Формат/Информация : Digital Theater Systems
Профиль формата : X / MA / Core
Идентификатор кодека : A_DTS
Продолжительность : 1 ч. 59 м.
Вид битрейта : Переменный / Переменный / Постоянный
Битрейт : 7374 Кбит/сек / 7374 Кбит/сек / 1509 Кбит/сек
Каналы : Object Based / 8 каналов / 6 каналов
Расположение каналов : Object Based / Front: L C R, Side: L R, Back: L R, LFE / Front: L C R, Side: L R, LFE
Частота : / 48,0 КГц / 48,0 КГц
Частота кадров : 93,750 кадра/сек (512 SPF)
Битовая глубина : / 24 бит / 24 бит
Метод сжатия : / Lossless / Lossy
Размер потока : 6,16 Гбайт (12%)
Язык : English
Default : Нет
Forced : Нет

Аудио #3
Идентификатор : 4
Формат : AC-3
Формат/Информация : Audio Coding 3
Идентификатор кодека : A_AC3
Продолжительность : 1 ч. 59 м.
Вид битрейта : Постоянный
Битрейт : 192 Кбит/сек
Каналы : 2 канала
Расположение каналов : Front: L R
Частота : 48,0 КГц
Частота кадров : 31,250 кадров/сек (1536 SPF)
Битовая глубина : 16 бит
Метод сжатия : С потерями
Размер потока : 164 Мбайт (0%)
Заголовок : Hellboy.II.The.Golden.Army.2008.2160p.BluRay.REMUX.HEVC.DTS-X.7.1-FGT
Язык : English
ServiceKind/String : Complete Main
Default : Нет
Forced : Нет

Аудио #4
Идентификатор : 5
Формат : AC-3
Формат/Информация : Audio Coding 3
Идентификатор кодека : A_AC3
Продолжительность : 1 ч. 59 м.
Вид битрейта : Постоянный
Битрейт : 192 Кбит/сек
Каналы : 2 канала
Расположение каналов : Front: L R
Частота : 48,0 КГц
Частота кадров : 31,250 кадров/сек (1536 SPF)
Битовая глубина : 16 бит
Метод сжатия : С потерями
Размер потока : 164 Мбайт (0%)
Заголовок : Hellboy.II.The.Golden.Army.2008.2160p.BluRay.REMUX.HEVC.DTS-X.7.1-FGT
Язык : English
ServiceKind/String : Complete Main
Default : Нет
Forced : Нет

Текст #1
Идентификатор : 6
Формат : UTF-8
Идентификатор кодека : S_TEXT/UTF8
Идентификатор кодека/Информация : UTF-8 Plain Text
Продолжительность : 1 ч. 50 м.
Битрейт : 47 бит/сек
ElementCount : 1366
Размер потока : 38,2 Кбайт (0%)
Заголовок : English-SRT
Язык : English
Default : Да
Forced : Нет

Текст #2
Идентификатор : 7
Формат : UTF-8
Идентификатор кодека : S_TEXT/UTF8
Идентификатор кодека/Информация : UTF-8 Plain Text
Продолжительность : 1 ч. 50 м.
Битрейт : 49 бит/сек
ElementCount : 1494
Размер потока : 39,9 Кбайт (0%)
Заголовок : English-SDH-SRT
Язык : English
Default : Нет
Forced : Нет

Текст #3
Идентификатор : 8
Формат : PGS
Режим смешивания : zlib
Идентификатор кодека : S_HDMV/PGS
Идентификатор кодека/Информация : Picture based subtitle format used on BDs/HD-DVDs
Продолжительность : 1 ч. 50 м.
Битрейт : 10,7 Кбит/сек
ElementCount : 3001
Размер потока : 8,47 Мбайт (0%)
Заголовок : English-PGS
Язык : English
Default : Нет
Forced : Нет

Текст #4
Идентификатор : 9
Формат : PGS
Режим смешивания : zlib
Идентификатор кодека : S_HDMV/PGS
Идентификатор кодека/Информация : Picture based subtitle format used on BDs/HD-DVDs
Продолжительность : 1 ч. 58 м.
Битрейт : 402 бит/сек
ElementCount : 116
Размер потока : 351 Кбайт (0%)
Заголовок : Russian-FORCED-PGS
Язык : Russian
Default : Нет
Forced : Нет

Текст #5
Идентификатор : 10
Формат : PGS
Режим смешивания : zlib
Идентификатор кодека : S_HDMV/PGS
Идентификатор кодека/Информация : Picture based subtitle format used on BDs/HD-DVDs
Продолжительность : 1 ч. 52 м.
Битрейт : 19,3 Кбит/сек
ElementCount : 3188
Размер потока : 15,5 Мбайт (0%)
Заголовок : English-COMMENTARY-PGS
Язык : English
Default : Нет
Forced : Нет

Текст #6
Идентификатор : 11
Формат : PGS
Режим смешивания : zlib
Идентификатор кодека : S_HDMV/PGS
Идентификатор кодека/Информация : Picture based subtitle format used on BDs/HD-DVDs
Продолжительность : 1 ч. 59 м.
Битрейт : 19,2 Кбит/сек
ElementCount : 3206
Размер потока : 16,4 Мбайт (0%)
Заголовок : Russian-COMMENTARY-PGS
Язык : Russian
Default : Нет
Forced : Нет

Текст #7
Идентификатор : 12
Формат : PGS
Режим смешивания : zlib
Идентификатор кодека : S_HDMV/PGS
Идентификатор кодека/Информация : Picture based subtitle format used on BDs/HD-DVDs
Продолжительность : 1 ч. 51 м.
Битрейт : 20,2 Кбит/сек
ElementCount : 4041
Размер потока : 16,2 Мбайт (0%)
Заголовок : English-COMMENTARY-PGS
Язык : English
Default : Нет
Forced : Нет

Меню
00:00:00.000 : en:Chapter 01
00:06:57.667 : en:Chapter 02
00:11:47.164 : en:Chapter 03
00:17:44.813 : en:Chapter 04
00:26:34.593 : en:Chapter 05
00:29:55.960 : en:Chapter 06
00:34:44.290 : en:Chapter 07
00:38:32.601 : en:Chapter 08
00:44:26.372 : en:Chapter 09
00:48:20.105 : en:Chapter 10
00:55:05.260 : en:Chapter 11
00:59:13.424 : en:Chapter 12
01:05:36.432 : en:Chapter 13
01:12:55.871 : en:Chapter 14
01:16:08.063 : en:Chapter 15
01:21:57.871 : en:Chapter 16
01:26:17.297 : en:Chapter 17
01:35:32.226 : en:Chapter 18
01:42:06.453 : en:Chapter 19
01:51:51.913 : en:Chapter 20
pb.wtf



Скачать Хеллбой II: Золотая армия через торрент https://d.radikal.ru/d27/1905/46/9c464bcb6c61.png Скачать фильм Хеллбой II: Золотая армия через торрент бесплантно в хорошем качестве Описание: Древнее перемирие между человечеством и тайным миром было нарушено, на Земле вот-вот разверзнется ад. Безжалостный лидер, вхожий ... 9.9 10 7
Торрент: Зарегистрирован [2019-05-13 04:51] · скачан: 44 раз
Статус: √ проверено
Размер: 51.52 GB
Как cкачать? Как скачать Хеллбой II: Золотая армия через торрент | qTorrent

% Раздел Тема Автор DL S | L
Фильмы 2006-2008 [ 2.27 GB ] Хеллбой II: Золотая армия / Hellboy II: The Golden Army [2008 BDRip] - [] Twi7ter Скачать
6 | 3
Фильмы 2006-2008 [ 1.46 GB ] Хеллбой II: Золотая армия / Hellboy II: The Golden Army [2008 BDRip] - [] Twi7ter Скачать
23 | 1
Ultra HD (UHD: 2K, 4K, 8K) — видео сверхвысокой чёткости [ 59.13 GB ] Хеллбой II: Золотая армия / Hellboy II: The Golden Army [2008 UHD Blu-ray EUR 2160p] sheker187 Скачать
1 | 0

28-11-2019 20:33  

Отключить всю рекламу на сайте

    Дорогой пользователь! Огромная просьба, поблагодарите релизера, оцените раздачу и оставьте свои комментарий, если Вы скачали Хеллбой II: Золотая армия через торрент бесплатно! Внесите свою лепту в развитие PiratBit!
    Комментировать посты могут только пользователи прошедшие не сложную регистрацию
    Показать сообщения:    

    Хеллбой II: Золотая армия через торрент
    Скачать бесплатно Хеллбой II: Золотая армия
    Хеллбой II: Золотая армия скачать торрент
    Хеллбой II: Золотая армия смотреть онлайн
    Cкачать фильм Хеллбой II: Золотая армия бесплатно
    Хеллбой II: Золотая армия скачать торрент в хорошем качестве
    Хеллбой II: Золотая армия смотреть онлайн бесплатно в хорошем качестве


    Вы не можете начинать темы
    Вы не можете отвечать на сообщения
    Вы не можете редактировать свои сообщения
    Вы не можете удалять свои сообщения
    Вы не можете голосовать в опросах
    Вы не можете прикреплять файлы к сообщениям
    Вы можете скачивать файлы