Наша группа ВК в очередной раз забанена мы уходим в Телеграм, присоединяйтесь!!!

Лицензия

30

iTunes

мы

iTunes

1

1 сезон

Чернобыль

iTunes

1+1

iTunes

Закатать в асфальт

8 сезон

Игра престолов

1 сезон

Ральф против интернета

ИГРА 18+

pack

ВАЖНО

!!Акция!!

Alien_RageХит недели

RePack

Resident Evil 21
pack

RePack

Metro:Exodus

!!Акция!!

Alien_Rage

RePack

fifa19

RePack

Assassins Creed: Odyssey

RePack

NEED FOR SPEED™ PAYBACK

3 сезон

9 сезон

Бесстыжие 9 сезон

Все сериалы

все сериалы на PB.wtf

RePack

FAR CRY 5
Ребята, катастрофически не хватает 2730р. для оплаты серверов за АПРЕЛЬ (всвязи с блокировками трафик упал в 3 раза), 1-2р., выручайте.
  

Дикая штучка / Something Wild (Джонатан Демме) [1986, мелодрама, комедия, криминал, триллер, BDRip 1080p by msltel] DUB, DVO, AVO pb.wtf

Дикая штучка через торрент pb.wtf

Раздают: 1 [ 0 KB/s ]
Размер: 18.19 GB | Добавлен: 10 д. назад | Торрент скачан:4 раза
Скачать  

13-05-2019 06:05 Дикая штучка Скачать торрент  

Название: Дикая штучка
Оригинальное название: Something Wild
Год выпуска: 1986
Страна: США
Жанр: мелодрама, комедия, криминал, триллер
Продолжительность: 01:52:59
Перевод: дублированный, профессиональный двухголосый, авторский

Режиссер: Джонатан Демме
В ролях: Джефф Дэниелс, Мелани Гриффит, Рэй Лиотта, Маргарет Колин, Кристин Олсен, Сью Тиссью, Дэйна Прю, Трэйси Уолтер, Джек Гилпин, Анна Томсон, Джон Сэйлз

О фильме: Девушка по имени Лулу «похищает» преуспевающего банкира Чарльза Дриггса, который не заплатил по счёту после обеда в кафе, и впутывает его в странные приключения. Вместе они отправляются в путешествие из Нью-Йорка в Пенсильванию, во время которого сдержанный и серьёзный Чарльз начинает поддаваться под обаяние независимой и дикой Лулу. На встрече выпускников им попадается бывший муж Лулу Рей Синклер, недавно вышедший из тюрьмы. По ходу фильма между Чарльзом и Реем возникает соперничество, которое заканчивается дракой. В результате вмешательства полиции Чарльз теряет Лулу из виду, но пытается её повсюду найти. И вот, когда он уже отчаялся найти её, он встречает Лулу в том же самом кафе.



Качество: BDRip 1080p
Формат: MKV
Видео: MPEG-4 AVC, 19.6 Mбит/с, 1920x1080, 23.976 кадр/с
Аудио 1: русский, AC3, 192 kbps, 2 ch, 48 kHz [дублированный, Варус-Видео]
Аудио 2: русский, AC3, 192 kbps, 2 ch, 48 kHz [закадровый двухголосый]
Аудио 3: русский, DTS, 1509 kbps, 2 ch, 48 kHz [авторский, Сергей Визгунов]
Аудио 4: английский, DTS, 1509 kbps, 2 ch, 48 kHz [оригинал]
Субтитры: английские
Главы/чаптеры
Общее
Уникальный идентификатор : 173197565002926572281849476721799409485 (0x824CA33E9085A169A2B3AA6B80152F4D)
Полное имя : D:\Video\Дикая штучка.1986.BDRip 1080p by msltel.mkv
Формат : Matroska
Версия формата : Version 4
Размер файла : 18,2 Гбайт
Продолжительность : 1 ч. 52 м.
Общий поток : 23,0 Мбит/сек
Название фильма : Rip by msltel
Дата кодирования : UTC 2019-05-13 04:56:13
Программа кодирования : mkvmerge v8.2.0 ('World of Adventure') 64bit
Библиотека кодирования : libebml v1.3.1 + libmatroska v1.4.2

Видео
Идентификатор : 1
Формат : AVC
Формат/Информация : Advanced Video Codec
Профиль формата : High@L4.1
Настройки формата : CABAC / 4 Ref Frames
Параметр CABAC формата : Да
Параметр RefFrames формата : 4 кадра
Идентификатор кодека : V_MPEG4/ISO/AVC
Продолжительность : 1 ч. 52 м.
Битрейт : 19,6 Мбит/сек
Ширина : 1920 пикселей
Высота : 1080 пикселей
Соотношение сторон : 16:9
Режим частоты кадров : Постоянный
Частота кадров : 23,976 (24000/1001) кадра/сек
Цветовое пространство : YUV
Субдискретизация насыщенности : 4:2:0
Битовая глубина : 8 бит
Тип развёртки : Прогрессивная
Бит/(Пиксели*Кадры) : 0.395
Размер потока : 15,5 Гбайт (85%)
Библиотека кодирования : x264 core 157 r2935 545de2f
Настройки программы : cabac=1 / ref=4 / deblock=1:-2:-2 / analyse=0x3:0x113 / me=umh / subme=11 / psy=1 / psy_rd=1.00:0.15 / mixed_ref=1 / me_range=32 / chroma_me=1 / trellis=2 / 8x8dct=1 / cqm=0 / deadzone=21,11 / fast_pskip=0 / chroma_qp_offset=-3 / threads=6 / lookahead_threads=1 / sliced_threads=0 / nr=0 / decimate=1 / interlaced=0 / bluray_compat=0 / constrained_intra=0 / bframes=8 / b_pyramid=2 / b_adapt=2 / b_bias=0 / direct=1 / weightb=1 / open_gop=0 / weightp=2 / keyint=230 / keyint_min=23 / scenecut=40 / intra_refresh=0 / rc_lookahead=40 / rc=crf / mbtree=1 / crf=19.0 / qcomp=0.60 / qpmin=0 / qpmax=69 / qpstep=4 / vbv_maxrate=50000 / vbv_bufsize=62500 / crf_max=0.0 / nal_hrd=none / filler=0 / ip_ratio=1.40 / aq=1:1.00
Язык : English
Default : Да
Forced : Нет

Аудио #1
Идентификатор : 2
Формат : AC-3
Формат/Информация : Audio Coding 3
Коммерческое название : Dolby Digital
Идентификатор кодека : A_AC3
Продолжительность : 1 ч. 52 м.
Вид битрейта : Постоянный
Битрейт : 192 Кбит/сек
Каналы : 2 канала
ChannelLayout : L R
Частота : 48,0 КГц
Частота кадров : 31,250 кадров/сек (1536 SPF)
Битовая глубина : 16 бит
Метод сжатия : С потерями
Размер потока : 155 Мбайт (1%)
Заголовок : DUB Варус-Видео
Язык : Russian
ServiceKind/String : Complete Main
Default : Да
Forced : Нет

Аудио #2
Идентификатор : 3
Формат : AC-3
Формат/Информация : Audio Coding 3
Коммерческое название : Dolby Digital
Идентификатор кодека : A_AC3
Продолжительность : 1 ч. 52 м.
Вид битрейта : Постоянный
Битрейт : 192 Кбит/сек
Каналы : 2 канала
ChannelLayout : L R
Частота : 48,0 КГц
Частота кадров : 31,250 кадров/сек (1536 SPF)
Битовая глубина : 16 бит
Метод сжатия : С потерями
Размер потока : 155 Мбайт (1%)
Заголовок : DVO
Язык : Russian
ServiceKind/String : Complete Main
Default : Нет
Forced : Нет

Аудио #3
Идентификатор : 4
Формат : DTS
Формат/Информация : Digital Theater Systems
Идентификатор кодека : A_DTS
Продолжительность : 1 ч. 52 м.
Вид битрейта : Постоянный
Битрейт : 1509 Кбит/сек
Каналы : 2 канала
ChannelLayout : L R
Частота : 48,0 КГц
Частота кадров : 93,750 кадра/сек (512 SPF)
Битовая глубина : 24 бит
Метод сжатия : С потерями
Размер потока : 1,19 Гбайт (7%)
Заголовок : Сергей Визгунов
Язык : Russian
Default : Нет
Forced : Нет

Аудио #4
Идентификатор : 5
Формат : DTS
Формат/Информация : Digital Theater Systems
Идентификатор кодека : A_DTS
Продолжительность : 1 ч. 52 м.
Вид битрейта : Постоянный
Битрейт : 1509 Кбит/сек
Каналы : 2 канала
ChannelLayout : Lt Rt
Частота : 48,0 КГц
Частота кадров : 93,750 кадра/сек (512 SPF)
Битовая глубина : 24 бит
Метод сжатия : С потерями
Размер потока : 1,19 Гбайт (7%)
Заголовок : original
Язык : English
Default : Нет
Forced : Нет

Текст
Идентификатор : 6
Формат : UTF-8
Идентификатор кодека : S_TEXT/UTF8
Идентификатор кодека/Информация : UTF-8 Plain Text
Продолжительность : 1 ч. 51 м.
Битрейт : 76 бит/сек
ElementCount : 1863
Размер потока : 62,0 Кбайт (0%)
Заголовок : английские
Язык : English
Default : Нет
Forced : Нет

Меню
00:00:00.000 : :Chapter 1
00:05:00.000 : :Chapter 2
00:10:00.000 : :Chapter 3
00:15:00.000 : :Chapter 4
00:20:00.000 : :Chapter 5
00:25:00.000 : :Chapter 6
00:30:00.000 : :Chapter 7
00:35:00.000 : :Chapter 8
00:40:00.000 : :Chapter 9
00:45:00.000 : :Chapter 10
00:50:00.000 : :Chapter 11
00:55:00.000 : :Chapter 12
01:00:00.000 : :Chapter 13
01:05:00.000 : :Chapter 14
01:10:00.000 : :Chapter 15
01:15:00.000 : :Chapter 16
01:20:00.000 : :Chapter 17
01:25:00.000 : :Chapter 18
01:30:00.000 : :Chapter 19
01:35:00.000 : :Chapter 20
01:40:00.000 : :Chapter 21
01:45:00.000 : :Chapter 22
01:50:00.000 : :Chapter 23
pb.wtf



Скачать Дикая штучка через торрент https://d.radikal.ru/d15/1905/59/6c0a9f0fb58f.jpg Скачать фильм Дикая штучка через торрент бесплантно в хорошем качестве О фильме: Девушка по имени Лулу «похищает» преуспевающего банкира Чарльза Дриггса, который не заплатил по счёту после обеда в кафе, и ... 10 10 1
Торрент: Зарегистрирован [2019-05-13 06:05] · скачан: 4 раз
Статус: √ проверено
Размер: 18.19 GB
Как cкачать? Как скачать Дикая штучка через торрент | qTorrent

% Раздел Тема Автор DL S | L
Фильмы [HD 720p, 1080p] (Хороший звук DUB, MVO) [ 5.7 GB ] Дикая штучка / Something Wild [1986 BDRip 720p by msltel] DUB DVO AVO msltel Скачать
7 | 0


>> Регистрируемся здесь <<






Отзывы и комментарии о схеме читаем и пишем здесь: ---> Отзывы и комментарии о схеме

Новые благодарочки в телеграм довольных пользователей:
скриншот   скриншот   скриншот   скриншот   скриншот
    Дорогой пользователь! Огромная просьба, поблагодарите релизера, оцените раздачу и оставьте свои комментарий, если Вы скачали Дикая штучка через торрент бесплатно! Внесите свою лепту в развитие PiratBit!
    Комментировать посты могут только пользователи прошедшие не сложную регистрацию
    Показать сообщения:    

    Дикая штучка через торрент
    Скачать бесплатно Дикая штучка
    Дикая штучка скачать торрент
    Дикая штучка смотреть онлайн
    Cкачать фильм Дикая штучка бесплатно
    Дикая штучка скачать торрент в хорошем качестве
    Дикая штучка смотреть онлайн бесплатно в хорошем качестве


    Вы не можете начинать темы
    Вы не можете отвечать на сообщения
    Вы не можете редактировать свои сообщения
    Вы не можете удалять свои сообщения
    Вы не можете голосовать в опросах
    Вы не можете прикреплять файлы к сообщениям
    Вы можете скачивать файлы