Ссылка на приватное зеркало нашего сайта всего за 1$. Внимание количество ограничено!!!

2 сезон

iTunes

1 сезон

1

2 сезон

2 сезон

iTunes

1 сезон

RePack

30

Ultimate

ВАЖНО

ИГРА 18+

pack

RePack

MK11
pack

Забери бонус

RePack

jed

!!Акция!!

Alien_Rage

RePack

fifa19

RePack

Assassins Creed: Odyssey

RePack

NEED FOR SPEED™ PAYBACK

4 сезон

9 сезон

Бесстыжие 9 сезон

Все сериалы

все сериалы на PB.wtf

RePack

FAR CRY 5
  

Плохие банки / Bad Banks / Сезон: 1 / Серии 1-6 из 6 (Кристиан Швохов) [2018, Триллер, драма, BDRip-HEVC 1080p] [MVO] (HDRezka Studio) pb.wtf

Плохие банки через торрент pb.wtf

Размер: 5.2 GB | Добавлен: 1 год 6 мес. назад | Торрент скачан:93 раза
Скачать  

13-05-2019 12:11 Плохие банки Скачать торрент  

Плохие банки / Bad Banks
Год выпуска: 2018
Страна: Германия, Люксембург / Letterbox Filmproduktion, Iris Productions
Жанр: Триллер, драма
Продолжительность: ~ 00:55:00
Перевод: Профессиональный (многоголосый, закадровый) *HDRezka Studio*
Субтитры: отсутствуют

Режиссёр: Кристиан Швохов

В ролях: Паула Бир, Барри Атсма, Дезире Носбуш, Альбрехт Шух, Май Дуонг Кьеу, Marc Limpach, Жермен Вагнер, Тобиас Моретти, Йорг Шютауф и другие

Описание: Амбициозная и целеустремленная Яна Лиекам работала в банке Crédit International, пока ее не уволили. Спустя некоторое время женщина получила приглашение в франкфуртское отделение банка Deutsche Invest. Яна и подумать не могла о таком карьерном повороте и решила воспользоваться возможностью поработать под руководством Габриэля Фенгера, одного из признанных гениев индустрии. Но радужные мечты оказались под угрозой, когда выяснилось, что все происходящее с Лиекам, срежиссировано ...

ratingскриншот  

Качество: BDRip-HEVC 1080p
Формат: MKV
Видео:V_MPEGH/ISO/HEVC , ~ 2500 kbps, 1920x960, 24.000 fps
Аудио: AC3, 48,0 КГц, 2 ch, 192 kbps - HDRezka Studio
General
Unique ID : 203786128336854685671935173285613000704 (0x994FC7DABDA15EA9883ECEAA0BA1D800)
Complete name : F:\Bad Banks.s01.1080p.HDRezka\Bad Banks.s01_e01.HEVC1080p.HDRezka.mkv
Format : Matroska
Format version : Version 4 / Version 2
File size : 978 MiB
Duration : 53 min 3 s
Overall bit rate : 2 577 kb/s
Movie name : Bad Banks.s01_e01.HEVC1080p.HDRezka
Encoded date : UTC 2019-05-13 08:12:02
Writing application : mkvmerge v6.1.0 ('Old Devil') built on Mar 4 2013 09:10:42
Writing library : libebml v1.3.0 + libmatroska v1.4.0
Cover : Yes
Attachments : cover.jpg

Video
ID : 1
Format : HEVC
Format/Info : High Efficiency Video Coding
Format profile : Main 10@L4@Main
Codec ID : V_MPEGH/ISO/HEVC
Duration : 53 min 3 s
Bit rate : 2 334 kb/s
Width : 1 920 pixels
Height : 960 pixels
Display aspect ratio : 2.000
Frame rate mode : Constant
Frame rate : 24.000 FPS
Original frame rate : 25.000 FPS
Color space : YUV
Chroma subsampling : 4:2:0
Bit depth : 10 bits
Bits/(Pixel*Frame) : 0.053
Stream size : 886 MiB (91%)
Title : Bad Banks.s01_e01.HEVC1080p.HDRezka
Writing library : x265 2.8+22-8f1d8a875bee:[Windows][MSVC 1900][64 bit] 10bit
Encoding settings : cpuid=1111039 / frame-threads=3 / numa-pools=8 / wpp / no-pmode / no-pme / no-psnr / no-ssim / log-level=2 / input-csp=1 / input-res=1920x960 / interlace=0 / total-frames=76400 / level-idc=0 / high-tier=1 / uhd-bd=0 / ref=5 / no-allow-non-conformance / no-repeat-headers / annexb / no-aud / no-hrd / info / hash=0 / no-temporal-layers / open-gop / min-keyint=25 / keyint=250 / gop-lookahead=0 / bframes=8 / b-adapt=2 / b-pyramid / bframe-bias=0 / rc-lookahead=80 / lookahead-slices=4 / scenecut=40 / radl=0 / no-intra-refresh / ctu=64 / min-cu-size=8 / no-rect / no-amp / max-tu-size=32 / tu-inter-depth=1 / tu-intra-depth=1 / limit-tu=0 / rdoq-level=2 / dynamic-rd=0.00 / no-ssim-rd / signhide / no-tskip / nr-intra=0 / nr-inter=0 / no-constrained-intra / no-strong-intra-smoothing / max-merge=4 / limit-refs=3 / limit-modes / me=3 / subme=5 / merange=57 / temporal-mvp / weightp / weightb / no-analyze-src-pics / deblock=-3:-3 / no-sao / no-sao-non-deblock / rd=5 / no-early-skip / no-rskip / no-fast-intra / no-tskip-fast / no-cu-lossless / b-intra / no-splitrd-skip / rdpenalty=0 / psy-rd=1.60 / psy-rdoq=2.00 / no-rd-refine / no-lossless / cbqpoffs=0 / crqpoffs=0 / rc=crf / crf=21.0 / qcomp=0.60 / qpstep=4 / stats-write=0 / stats-read=0 / ipratio=1.40 / pbratio=1.30 / aq-mode=3 / aq-strength=1.00 / cutree / zone-count=0 / no-strict-cbr / qg-size=32 / no-rc-grain / qpmax=69 / qpmin=0 / no-const-vbv / sar=0 / overscan=0 / videoformat=5 / range=0 / colorprim=2 / transfer=2 / colormatrix=2 / chromaloc=0 / display-window=0 / max-cll=0,0 / min-luma=0 / max-luma=1023 / log2-max-poc-lsb=8 / vui-timing-info / vui-hrd-info / slices=1 / no-opt-qp-pps / no-opt-ref-list-length-pps / no-multi-pass-opt-rps / scenecut-bias=0.05 / no-opt-cu-delta-qp / no-aq-motion / no-hdr / no-hdr-opt / no-dhdr10-opt / no-idr-recovery-sei / analysis-reuse-level=5 / scale-factor=0 / refine-intra=0 / refine-inter=0 / refine-mv=0 / no-limit-sao / ctu-info=0 / no-lowpass-dct / refine-mv-type=0 / copy-pic=1 / max-ausize-factor=1.0 / no-dynamic-refine / no-single-sei
Language : English
Default : Yes
Forced : No

Audio
ID : 2
Format : AC-3
Format/Info : Audio Coding 3
Format settings, Endianness : Big
Codec ID : A_AC3
Duration : 53 min 3 s
Bit rate mode : Constant
Bit rate : 192 kb/s
Channel(s) : 2 channels
Channel positions : Front: L R
Sampling rate : 48.0 kHz
Frame rate : 31.250 FPS (1536 SPF)
Bit depth : 16 bits
Compression mode : Lossy
Stream size : 72.9 MiB (7%)
Title : HDRezka
Language : Russian
Service kind : Complete Main
Default : Yes
Forced : No

Menu
00:00:00.000 : en:Chapter 01
00:03:54.840 : en:Chapter 02
00:18:07.160 : en:Chapter 03
00:33:21.760 : en:Chapter 04
00:50:18.080 : en:Chapter 05

скриншот   скриншот   скриншот   скриншот  
pb.wtf



Скачать Плохие банки через торрент https://i109.fastpic.ru/big/2019/0513/04/0415d02f4f99c6d5ffa37dfb2dde7904.jpg Скачать фильм Плохие банки через торрент бесплантно в хорошем качестве Описание: Амбициозная и целеустремленная Яна Лиекам работала в банке Crédit International, пока ее не уволили. Спустя некоторое время ... 7.8 10 4
Info! Серебряная раздача, засчитывается только 50% скачанного.
Торрент: Зарегистрирован [2019-05-13 12:11] · скачан: 93 раз
Статус: √ проверено
Размер: 5.2 GB
Как cкачать? Как скачать Плохие банки через торрент | qTorrent

% Раздел Тема Автор DL S | L
Зарубежные сериалы [ 12.17 GB ] Плохие банки / Bad Banks / Сезон: 2 / Серии 1-6 из 6 [2020 WEBRip 1080p] [MVO] killermax2013 Скачать
1 | 0
T Зарубежные сериалы [ 4.28 GB ] Плохие банки / Bad Banks / Сезон: 2 / Серии 1-6 из 6 [2020 HDTVRip] [MVO] killermax2013 Скачать
1 | 0
Зарубежные сериалы [ 13.04 GB ] Плохие банки / Bad Banks / Сезон: 1 / Серии 1-6 из 6 [2018 WEBRip 1080p] [MVO] killermax2013 Скачать
1 | 0

28-11-2019 20:33  

Отключить всю рекламу на сайте

    Дорогой пользователь! Огромная просьба, поблагодарите релизера, оцените раздачу и оставьте свои комментарий, если Вы скачали Плохие банки через торрент бесплатно! Внесите свою лепту в развитие PiratBit!
    Комментировать посты могут только пользователи прошедшие не сложную регистрацию
    Показать сообщения:    

    Плохие банки через торрент
    Скачать бесплатно Плохие банки
    Плохие банки скачать торрент
    Плохие банки смотреть онлайн
    Cкачать фильм Плохие банки бесплатно
    Плохие банки скачать торрент в хорошем качестве
    Плохие банки смотреть онлайн бесплатно в хорошем качестве


    Вы не можете начинать темы
    Вы не можете отвечать на сообщения
    Вы не можете редактировать свои сообщения
    Вы не можете удалять свои сообщения
    Вы не можете голосовать в опросах
    Вы не можете прикреплять файлы к сообщениям
    Вы можете скачивать файлы