Наша группа ВК в очередной раз забанена мы уходим в Телеграм, присоединяйтесь!!!

Лицензия

30

iTunes

мы

iTunes

1

1 сезон

Чернобыль

iTunes

1+1

iTunes

Закатать в асфальт

8 сезон

Игра престолов

1 сезон

Ральф против интернета

ИГРА 18+

pack

ВАЖНО

!!Акция!!

Alien_RageХит недели

RePack

Resident Evil 21
pack

RePack

Metro:Exodus

!!Акция!!

Alien_Rage

RePack

fifa19

RePack

Assassins Creed: Odyssey

RePack

NEED FOR SPEED™ PAYBACK

3 сезон

9 сезон

Бесстыжие 9 сезон

Все сериалы

все сериалы на PB.wtf

RePack

FAR CRY 5
Ребята, катастрофически не хватает 2730р. для оплаты серверов за АПРЕЛЬ (всвязи с блокировками трафик упал в 3 раза), 1-2р., выручайте.
  

Мама Лора (Больше жизни) / Серия 1- 16 из 16 / (Андрей Силкин) [2019 г., Детектив, комедия, SATRip] pb.wtf

Мама Лора через торрент pb.wtf

Качают: 4 [ 0 KB/s ]
Размер: 10.95 GB | Добавлен: 12 ч. назад | Торрент скачан:4 раза
Скачать  

13-05-2019 12:15 Мама Лора Скачать торрент  

Мама Лора (Больше жизни)
Год выпуска: 2019
Страна: Россия
Жанр: Детектив, комедия
Продолжительность: 16 х ~ 00:46:00
Субтитры: нет

Режиссер: Андрей Силкин

В ролях: Елена Панова, Константин Юшкевич, Ольга Тумайкина, Анна Уколова, Андрей Назимов, Андрей Стоянов, Наталья Тищенко, Елизавета Лотова, Сергей Черданцев, Михаил Куряев, Александр Никольский

Описание: Владелица придорожного кафе возле подмосковной деревни Сабурово Лора – простая женщина, но природная наблюдательность и неравнодушие к чужой беде пробуждают в ней дар детектива. За свою доброту и отзывчивость она получила прозвище Мама Лора: ни дальнобойщики, ни пассажиры, ни местные жители никогда не уйдут от нее голодными, их всегда выслушают и помогут. Однако жизнь самой Лоры не назовешь легкой: ее муж Гоша бесконечно ищет работу, дочь никак не определится с выбором профессии, у сына не ладится личная жизнь, но Мама Лора не унывает и с одинаковой легкостью печет пирожки и раскрывает уголовные преступления.

Качество: SATRip
Формат: AVI
Видео кодек: XviD
Аудио кодек: MP3
Видео: XviD, 1800 Кбит/с, 704x 448
Аудио#1: МР3, 2 ch, 128 Кбит/с
скриншот   скриншот   скриншот   скриншот  

General
Complete name : H:\релизы.торрентфайл\Мама Лора(2019)\Mama.Lora.01.SATRip.[www.riperam.org].avi
Format : AVI
Format/Info : Audio Video Interleave
File size : 707 MiB
Duration : 51mn 1s
Overall bit rate : 1 938 Kbps
Writing application : VirtualDubMod 1.5.10.3 | www.virtualdub-fr.org || (build 2550/release)
Writing library : VirtualDubMod build 2550/release

Video
ID : 0
Format : MPEG-4 Visual
Format profile : Advanced Simple@L5
Format settings, BVOP : 2
Format settings, QPel : No
Format settings, GMC : No warppoints
Format settings, Matrix : Default (H.263)
Codec ID : XVID
Codec ID/Hint : XviD
Duration : 51mn 1s
Bit rate : 1 800 Kbps
Width : 704 pixels
Height : 448 pixels
Display aspect ratio : 1.571
Frame rate : 25.000 fps
Color space : YUV
Chroma subsampling : 4:2:0
Bit depth : 8 bits
Scan type : Progressive
Compression mode : Lossy
Bits/(Pixel*Frame) : 0.228
Stream size : 657 MiB (93%)
Writing library : XviD 1.2.1 (UTC 2008-12-04)

Audio
ID : 1
Format : MPEG Audio
Format version : Version 1
Format profile : Layer 3
Mode : Joint stereo
Mode extension : MS Stereo
Codec ID : 55
Codec ID/Hint : MP3
Duration : 51mn 1s
Bit rate mode : Constant
Bit rate : 128 Kbps
Channel(s) : 2 channels
Sampling rate : 48.0 KHz
Compression mode : Lossy
Stream size : 46.7 MiB (7%)
Alignment : Aligned on interleaves
Interleave, duration : 40 ms (1.00 video frame)
Interleave, preload duration : 504 ms
Writing library : LAME3.99r
Encoding settings : -m j -V 4 -q 9 -lowpass 17 -b 128

Внимание! Раздача ведётся путём добавления новых серий; при каждом добавлении создётся новый торрент. Чтобы начать докачку новой серии, пользователям необходимо сделать следующее:
  • Остановить скачивание,
  • Удалить старый торрент у себя из клиента (старые серии удалять не надо),
  • Скачать новый торрент и запустить его у себя в клиенте вместо старого, при этом указать клиенту путь в старую папку куда и должно происходить скачивание новых серий.
Ваш клиент при этом должен произвести хеширование (проверку) старой папки (если не производит сам - помогите ему сделать это), и будет докачивать только те серии которых у вас ещё нет. Старые серии при этом не удаляются, а продолжают раздаваться!

Eсли вы уже удалили старые серии, то предотвратить повторную закачку старых серий можно, отжав галочку в соответсвующих местах при запуске нового торрента. По возможности, желательно не удалять старые серии как можно дольше чтобы релизёр не столько продолжал раздавать старые серии, а смог сконцентрироваться на новых.
pb.wtf



Скачать Мама Лора через торрент http://pic1.kartinco.top/images/12/swx7o.jpg Скачать фильм Мама Лора через торрент бесплантно в хорошем качестве Описание: Владелица придорожного кафе возле подмосковной деревни Сабурово Лора – простая женщина, но природная наблюдательность и ... 10 10 6
Торрент: Зарегистрирован [2019-05-23 13:50] · скачан: 4 раз
Статус: √ проверено
Размер: 10.95 GB
Как cкачать? Как скачать Мама Лора через торрент | qTorrent

% Раздел Тема Автор DL S | L
Наши сериалы [ 10.19 GB ] Мама Лора / Серии: 1-16 из 16 [2019 SATRip-AVC] aleksan55 Скачать
7 | 5


>> Регистрируемся здесь <<






Отзывы и комментарии о схеме читаем и пишем здесь: ---> Отзывы и комментарии о схеме

Новые благодарочки в телеграм довольных пользователей:
скриншот   скриншот   скриншот   скриншот   скриншот
    Дорогой пользователь! Огромная просьба, поблагодарите релизера, оцените раздачу и оставьте свои комментарий, если Вы скачали Мама Лора через торрент бесплатно! Внесите свою лепту в развитие PiratBit!
    Комментировать посты могут только пользователи прошедшие не сложную регистрацию
    Показать сообщения:    

    Мама Лора через торрент
    Скачать бесплатно Мама Лора
    Мама Лора скачать торрент
    Мама Лора смотреть онлайн
    Cкачать фильм Мама Лора бесплатно
    Мама Лора скачать торрент в хорошем качестве
    Мама Лора смотреть онлайн бесплатно в хорошем качестве


    Вы не можете начинать темы
    Вы не можете отвечать на сообщения
    Вы не можете редактировать свои сообщения
    Вы не можете удалять свои сообщения
    Вы не можете голосовать в опросах
    Вы не можете прикреплять файлы к сообщениям
    Вы можете скачивать файлы