Ссылка на приватное зеркало всего за 1$. Внимание количество ограничено!!!

iTunes

iTunes

iTunes

1

iTunes

iTunes

iTunes

WEBRip

iTunes

30
pack

$ от Little Big

ВАЖНО

!!Акция!!

Alien_RageХит недели

RePack

Resident Evil 21

ИГРА 18+

pack

RePack

jed

!!Акция!!

Alien_Rage

RePack

fifa19

RePack

Assassins Creed: Odyssey

RePack

NEED FOR SPEED™ PAYBACK

4 сезон

9 сезон

Бесстыжие 9 сезон

Все сериалы

все сериалы на PB.wtf

RePack

FAR CRY 5
  

Американский психопат 2: Стопроцентная американка / American Psycho II: All American Girl (Морган Дж. Фриман) [2002 г., триллер, ужасы, криминал, WEB-DLRip] AVO (Юрий Сербин) pb.wtf

Американский психопат 2: Стопроцентная американка через торрент pb.wtf

Размер: 1.47 GB | Добавлен: 1 год 2 мес. назад | Торрент скачан:18 раз
Скачать  

13-05-2019 20:10 Американский психопат 2: Стопроцентная американка Скачать торрент  

Американский психопат 2: Стопроцентная американка / American Psycho II: All American Girl Год выпуска: 2002

Страна: США

Жанр: Триллер, ужасы, криминал

Продолжительность: 01:28:29

Перевод: Авторский (одноголосый) - Юрий Сербин

Режиссер: Морган Дж. Фриман

rating

В ролях: Мила Кунис, Линди Бут, Уильям Шэтнер, Джерент Вин Дэйвис, Робин Данн, Дженна Перри, Кейт Келтон, Консетиа Хэмилтон, Чарльз Оффисер

Описание: Никто не знал, что знаменитому американскому психопату Патрику Бэйтману помогла отправиться на тот свет маленькая Рейчел, не задумываясь вонзив нож ему в спину. Теперь девочка выросла и поступила в престижный колледж на курсы профессора-криминалиста Роберта Старкмана, знаменитого «охотника на маньяков». У студентки далеко идущие планы: тот, кто станет помощником Старкмана, обязательно поступит в престижную академию ФБР, а Рейчел так хочется пойти по стопам профессора. Жаль только, что у неё много конкурентов, но не беда - их легко устранить, когда прилежно штудируешь методы легендарных убийц. Ради этого решительная девушка готова стать новой «американской психопаткой», но сможет ли она добиться желанной цели, не повторив судьбу своего кумира Патрика Бэйтмана?
Качество: WEB-DLRip
Формат: AVI
Видео кодек: XviD
Аудио кодек: AC3
Видео: XviD, 2177 Кбит/с, 720x400
Аудио: Русский, AC3, 2 ch, 192 Кбит/с - AVO (Юрий Сербин)
Видео
Идентификатор : 0
Формат : MPEG-4 Visual
Профиль формата : Advanced Simple@L5
Настройки формата : BVOP1
Параметр BVOP формата : 1
Параметр QPel формата : Нет
Параметр GMC формата : Без точки перехода
Параметр матрицы формата : Default (MPEG)
Идентификатор кодека : XVID
Идентификатор кодека/Подсказка : XviD
Продолжительность : 1 ч. 28 м.
Битрейт : 2177 Кбит/сек
Ширина : 720 пикселей
Высота : 400 пикселей
Соотношение сторон : 16:9
Частота кадров : 23,976 (24000/1001) кадра/сек
Цветовое пространство : YUV
Субдискретизация насыщенности : 4:2:0
Битовая глубина : 8 бит
Тип развёртки : Прогрессивная
Метод сжатия : С потерями
Бит/(Пиксели*Кадры) : 0.315
Размер потока : 1,35 Гбайт (92%)
Библиотека кодирования : XviD 73

Аудио
Идентификатор : 1
Формат : AC-3
Формат/Информация : Audio Coding 3
Коммерческое название : Dolby Digital
Идентификатор кодека : 2000
Продолжительность : 1 ч. 28 м.
Вид битрейта : Постоянный
Битрейт : 192 Кбит/сек
Каналы : 2 канала
Channel layout : L R
Частота : 48,0 КГц
Частота кадров : 31,250 кадров/сек (1536 SPF)
Битовая глубина : 16 бит
Метод сжатия : С потерями
Размер потока : 122 Мбайт (8%)
Выравнивание : Разделение по промежуткам
Продолжительность промежутка : 42 мс. (1,00 видеокадр)
Время предзагрузки промежутка : 500 мс.
ServiceKind/String : Complete Main

скриншот   скриншот   скриншот   скриншот   скриншот  

pb.wtf



Скачать Американский психопат 2: Стопроцентная американка через торрент https://i2.imageban.ru/out/2019/05/13/0e298a27d72dc625127314177c6cfd7c.gif Скачать фильм Американский психопат 2: Стопроцентная американка через торрент бесплантно в хорошем качестве Описание: Никто не знал, что знаменитому американскому психопату Патрику Бэйтману помогла отправиться на тот свет маленькая Рейчел, не ... 5 10 1
Торрент: Зарегистрирован [2019-05-13 20:10] · скачан: 18 раз
Статус: √ проверено
Размер: 1.47 GB
Как cкачать? Как скачать Американский психопат 2: Стопроцентная американка через торрент | qTorrent

28-11-2019 20:33  

Отключить всю рекламу на сайте

    Дорогой пользователь! Огромная просьба, поблагодарите релизера, оцените раздачу и оставьте свои комментарий, если Вы скачали Американский психопат 2: Стопроцентная американка через торрент бесплатно! Внесите свою лепту в развитие PiratBit!
    Комментировать посты могут только пользователи прошедшие не сложную регистрацию
    Показать сообщения:    

    Американский психопат 2: Стопроцентная американка через торрент
    Скачать бесплатно Американский психопат 2: Стопроцентная американка
    Американский психопат 2: Стопроцентная американка скачать торрент
    Американский психопат 2: Стопроцентная американка смотреть онлайн
    Cкачать фильм Американский психопат 2: Стопроцентная американка бесплатно
    Американский психопат 2: Стопроцентная американка скачать торрент в хорошем качестве
    Американский психопат 2: Стопроцентная американка смотреть онлайн бесплатно в хорошем качестве


    Вы не можете начинать темы
    Вы не можете отвечать на сообщения
    Вы не можете редактировать свои сообщения
    Вы не можете удалять свои сообщения
    Вы не можете голосовать в опросах
    Вы не можете прикреплять файлы к сообщениям
    Вы можете скачивать файлы