Наша группа ВК в очередной раз забанена мы уходим в Телеграм, присоединяйтесь!!!

Лицензия

30

iTunes

мы

iTunes

1

1 сезон

Чернобыль

iTunes

1+1

iTunes

Закатать в асфальт

8 сезон

Игра престолов

1 сезон

Ральф против интернета

ИГРА 18+

pack

ВАЖНО

!!Акция!!

Alien_RageХит недели

RePack

Resident Evil 21
pack

RePack

Metro:Exodus

!!Акция!!

Alien_Rage

RePack

fifa19

RePack

Assassins Creed: Odyssey

RePack

NEED FOR SPEED™ PAYBACK

3 сезон

9 сезон

Бесстыжие 9 сезон

Все сериалы

все сериалы на PB.wtf

RePack

FAR CRY 5
Ребята, катастрофически не хватает 2730р. для оплаты серверов за АПРЕЛЬ (всвязи с блокировками трафик упал в 3 раза), 1-2р., выручайте.
  

Опасная иллюзия / The Necessary Death of Charlie Countryman (Фредрик Бонд) [2013, драма, мелодрама, криминал, боевик, триллер, BDRip 720p by msltel] DUB, AVO pb.wtf

Опасная иллюзия через торрент pb.wtf

Раздают: 5 [ 0 KB/s ]
Размер: 5.24 GB | Добавлен: 9 д. назад | Торрент скачан:52 раза
Скачать  

14-05-2019 06:47 Опасная иллюзия Скачать торрент  

Название: Опасная иллюзия
Оригинальное название: The Necessary Death of Charlie Countryman
Год выпуска: 2013
Страна: Румыния, США
Жанр: драма, мелодрама, криминал, боевик, триллер
Продолжительность: 01:43:36
Перевод: дублированный, авторский

Режиссер: Фредрик Бонд
В ролях: Шайа ЛаБаф, Эван Рэйчел Вуд, Мадс Миккельсен, Тиль Швайгер, Руперт Гринт, Джеймс Бакли, Ион Карамитру, Винсент Д`Онофрио, Мелисса Лео, Джон Хёрт

О фильме: Чарли Кантримен живёт в США, спасаясь с помощью галлюциногенных веществ от скучной работы и тоски ничем не примечательного существования. Во время очередного наркотического трипа Чарли видит свою покойную мать, которая настоятельно рекомендует сыну съездить в Бухарест. Он не смеет ослушаться маму, и там знакомится с девушкой своей мечты, а заодно с местными криминальными порядками, из-за чего рискует в скором времени расстаться с жизнью...



Качество: BDRip 720p
Формат: MKV
Видео: MPEG-4 AVC, 5700 Кбит/c, 1280x720, 23.976 кадр/с
Аудио 1: русский, AC3, 448 kbps, 6 ch, 48 kHz [дублированный, BD RUS]
Аудио 2: русский, AC3, 448 kbps, 6 ch, 48 kHz [авторский, Алексей Матвеев, с ненормативной лексикой]
Аудио 3: английский, AC3, 640 kbps, 6 ch, 48 kHz [оригинал]
Субтитры 1: русские (Матвеев, с ненормативной лексикой)
Субтитры 2: английские
Главы/чаптеры
Общее
Уникальный идентификатор : 217834845164469496862699100866974442355 (0xA3E17712526BD126BF84E48BA3E5E373)
Полное имя : D:\Video\Опасная иллюзия.2013.BDRip 720p by msltel.mkv
Формат : Matroska
Версия формата : Version 4
Размер файла : 5,24 Гбайт
Продолжительность : 1 ч. 43 м.
Общий поток : 7239 Кбит/сек
Название фильма : Rip by msltel
Дата кодирования : UTC 2019-05-14 05:42:33
Программа кодирования : mkvmerge v8.2.0 ('World of Adventure') 64bit
Библиотека кодирования : libebml v1.3.1 + libmatroska v1.4.2

Видео
Идентификатор : 1
Формат : AVC
Формат/Информация : Advanced Video Codec
Профиль формата : High@L4.1
Настройки формата : CABAC / 9 Ref Frames
Параметр CABAC формата : Да
Параметр RefFrames формата : 9 кадров
Идентификатор кодека : V_MPEG4/ISO/AVC
Продолжительность : 1 ч. 43 м.
Битрейт : 5700 Кбит/сек
Ширина : 1280 пикселей
Высота : 720 пикселей
Соотношение сторон : 16:9
Режим частоты кадров : Постоянный
Частота кадров : 23,976 (24000/1001) кадра/сек
Цветовое пространство : YUV
Субдискретизация насыщенности : 4:2:0
Битовая глубина : 8 бит
Тип развёртки : Прогрессивная
Бит/(Пиксели*Кадры) : 0.258
Размер потока : 4,12 Гбайт (79%)
Библиотека кодирования : x264 core 157 r2935 545de2f
Настройки программы : cabac=1 / ref=9 / deblock=1:-2:-2 / analyse=0x3:0x113 / me=umh / subme=11 / psy=1 / psy_rd=1.00:0.15 / mixed_ref=1 / me_range=32 / chroma_me=1 / trellis=2 / 8x8dct=1 / cqm=0 / deadzone=21,11 / fast_pskip=0 / chroma_qp_offset=-3 / threads=6 / lookahead_threads=1 / sliced_threads=0 / nr=0 / decimate=1 / interlaced=0 / bluray_compat=0 / constrained_intra=0 / bframes=11 / b_pyramid=2 / b_adapt=2 / b_bias=0 / direct=1 / weightb=1 / open_gop=0 / weightp=2 / keyint=230 / keyint_min=23 / scenecut=40 / intra_refresh=0 / rc_lookahead=40 / rc=crf / mbtree=1 / crf=16.0 / qcomp=0.60 / qpmin=0 / qpmax=69 / qpstep=4 / vbv_maxrate=50000 / vbv_bufsize=62500 / crf_max=0.0 / nal_hrd=none / filler=0 / ip_ratio=1.40 / aq=1:1.00
Язык : English
Default : Да
Forced : Нет

Аудио #1
Идентификатор : 2
Формат : AC-3
Формат/Информация : Audio Coding 3
Коммерческое название : Dolby Digital
Идентификатор кодека : A_AC3
Продолжительность : 1 ч. 43 м.
Вид битрейта : Постоянный
Битрейт : 448 Кбит/сек
Каналы : 6 каналов
ChannelLayout : L R C LFE Ls Rs
Частота : 48,0 КГц
Частота кадров : 31,250 кадров/сек (1536 SPF)
Битовая глубина : 16 бит
Метод сжатия : С потерями
Размер потока : 332 Мбайт (6%)
Заголовок : DUB BD RUS
Язык : Russian
ServiceKind/String : Complete Main
Default : Да
Forced : Нет

Аудио #2
Идентификатор : 3
Формат : AC-3
Формат/Информация : Audio Coding 3
Коммерческое название : Dolby Digital
Идентификатор кодека : A_AC3
Продолжительность : 1 ч. 43 м.
Вид битрейта : Постоянный
Битрейт : 448 Кбит/сек
Каналы : 6 каналов
ChannelLayout : L R C LFE Ls Rs
Частота : 48,0 КГц
Частота кадров : 31,250 кадров/сек (1536 SPF)
Битовая глубина : 16 бит
Метод сжатия : С потерями
Размер потока : 332 Мбайт (6%)
Заголовок : Алексей Матвеев, с ненормативной лексикой
Язык : Russian
ServiceKind/String : Complete Main
Default : Нет
Forced : Нет

Аудио #3
Идентификатор : 4
Формат : AC-3
Формат/Информация : Audio Coding 3
Коммерческое название : Dolby Digital
Идентификатор кодека : A_AC3
Продолжительность : 1 ч. 43 м.
Вид битрейта : Постоянный
Битрейт : 640 Кбит/сек
Каналы : 6 каналов
ChannelLayout : L R C LFE Ls Rs
Частота : 48,0 КГц
Частота кадров : 31,250 кадров/сек (1536 SPF)
Битовая глубина : 16 бит
Метод сжатия : С потерями
Размер потока : 474 Мбайт (9%)
Заголовок : original
Язык : English
ServiceKind/String : Complete Main
Default : Нет
Forced : Нет

Текст #1
Идентификатор : 5
Формат : UTF-8
Идентификатор кодека : S_TEXT/UTF8
Идентификатор кодека/Информация : UTF-8 Plain Text
Продолжительность : 1 ч. 41 м.
Битрейт : 67 бит/сек
ElementCount : 981
Размер потока : 50,0 Кбайт (0%)
Заголовок : русские (Матвеев, с ненормативной лексикой)
Язык : Russian
Default : Нет
Forced : Нет

Текст #2
Идентификатор : 6
Формат : UTF-8
Идентификатор кодека : S_TEXT/UTF8
Идентификатор кодека/Информация : UTF-8 Plain Text
Продолжительность : 1 ч. 36 м.
Битрейт : 47 бит/сек
ElementCount : 1104
Размер потока : 33,6 Кбайт (0%)
Заголовок : английские
Язык : English
Default : Нет
Forced : Нет

Меню
00:00:00.000 : :Chapter 1
00:10:10.025 : :Chapter 2
00:17:18.537 : :Chapter 3
00:29:32.228 : :Chapter 4
00:37:04.847 : :Chapter 5
00:44:12.650 : :Chapter 6
00:55:12.517 : :Chapter 7
01:02:22.196 : :Chapter 8
01:09:19.947 : :Chapter 9
01:17:12.210 : :Chapter 10
01:28:30.638 : :Chapter 11
01:39:34.009 : :Chapter 12
pb.wtf



Скачать Опасная иллюзия через торрент https://a.radikal.ru/a15/1905/14/36eb66d11110.jpg Скачать фильм Опасная иллюзия через торрент бесплантно в хорошем качестве О фильме: Чарли Кантримен живёт в США, спасаясь с помощью галлюциногенных веществ от скучной работы и тоски ничем не примечательного ... 10 10 3
Info! Золотая раздача, скачанное не засчитывается.
Торрент: Зарегистрирован [2019-05-14 06:47] · скачан: 52 раз
Статус: √ проверено
Размер: 5.24 GB
Как cкачать? Как скачать Опасная иллюзия через торрент | qTorrent

% Раздел Тема Автор DL S | L
Фильмы [HD 720p, 1080p] (Хороший звук DUB, MVO) [ 14.6 GB ] Опасная иллюзия / The Necessary Death of Charlie Countryman [2013 BDRip 1080p by msltel] DUB AVO msltel Скачать
3 | 0


>> Регистрируемся здесь <<






Отзывы и комментарии о схеме читаем и пишем здесь: ---> Отзывы и комментарии о схеме

Новые благодарочки в телеграм довольных пользователей:
скриншот   скриншот   скриншот   скриншот   скриншот

16-05-2019 07:38 Опасная иллюзия Скачать торрент  

а ведь и актерский состав очень хорош, и трейнер..над смотретьpb.wtf



    Дорогой пользователь! Огромная просьба, поблагодарите релизера, оцените раздачу и оставьте свои комментарий, если Вы скачали Опасная иллюзия через торрент бесплатно! Внесите свою лепту в развитие PiratBit!
    Комментировать посты могут только пользователи прошедшие не сложную регистрацию
    Показать сообщения:    

    Опасная иллюзия через торрент
    Скачать бесплатно Опасная иллюзия
    Опасная иллюзия скачать торрент
    Опасная иллюзия смотреть онлайн
    Cкачать фильм Опасная иллюзия бесплатно
    Опасная иллюзия скачать торрент в хорошем качестве
    Опасная иллюзия смотреть онлайн бесплатно в хорошем качестве


    Вы не можете начинать темы
    Вы не можете отвечать на сообщения
    Вы не можете редактировать свои сообщения
    Вы не можете удалять свои сообщения
    Вы не можете голосовать в опросах
    Вы не можете прикреплять файлы к сообщениям
    Вы можете скачивать файлы