Мега распродажа FORZA HORIZON 4 ULTIMATE+ВСЕ DLC+ОНЛАЙН всего за 499р. 349 руб. (супер цена). Внимание количество ограничено!!!

Лицензия

30

iTunes

мы

iTunes

1

1 сезон

Чернобыль

1 сезон

Ральф против интернета

MVO

Покемон. Детектив Пикачу

8 сезон

Игра престолов

iTunes

1+1

ИГРА 18+

pack

ВАЖНО

!!Акция!!

Alien_RageХит недели

RePack

Resident Evil 21
pack

RePack

Metro:Exodus

!!Акция!!

Alien_Rage

RePack

fifa19

RePack

Assassins Creed: Odyssey

RePack

NEED FOR SPEED™ PAYBACK

3 сезон

9 сезон

Бесстыжие 9 сезон

Все сериалы

все сериалы на PB.wtf

RePack

FAR CRY 5
Ребята, катастрофически не хватает 2730р. для оплаты серверов за МАЙ (всвязи с блокировками трафик упал в 3 раза), 1-2р., выручайте.
  

Подлый Пит / Sneaky Pete / Сезон: 3 / Серии: 1-8 из 10 (Джон Авнет, Клер Килнер) [2019, драма, криминал, WEB-DL 1080p] [MVO] (Lostfilm) pb.wtf

Подлый Пит через торрент pb.wtf

Размер: 21.46 GB | Добавлен: 5 д. назад | Торрент скачан:0 раз
Скачать  

14-05-2019 09:07 Подлый Пит Скачать торрент  



Подлый Пит / Sneaky Pete



Год выпуска: 2019
Страна: США
Жанр: драма, криминал
Продолжительность: 01:00:00

Перевод: Профессиональный (многоголосый закадровый) Lostfilm

Режиссёр: Джон Авнет, Клер Килнер
В ролях: Джованни Рибизи (Мариус Йозепович), Либэ Барер (Карли Боуман), Шэйн МакРей (Тейлор Боуман), Марин Айрлэнд (Джулия Боуман), Эфрат Дор (Лиззи), Питер Герети (Отто Бернхардт), Марго Мартиндейл (Одри Бёрнхарт), М. Эммет Уолш (Текс Хопкинс), Рикки Джей, Патрик Джей Адамс (Стефан Килбейн)

Описание: "Подлый Пит" - остросюжетная криминальная драма онлайн-сервиса Amazon от звезды сериала "Во все тяжкие" Брайана Крэнстона и создателя медицинского процедурала "Доктор Хаус" Дэвида Шора. Сериал долго не мог попасть на экраны, но когда пилот все-таки был снят, он так понравился зрителям, что моментально стал одной из самых обсуждаемых и популярных новинок канала. Это неудивительно, ведь редко получается найти столь гармоничный баланс между глубокой драматургией, легким юмором и динамичной подачей сюжета. "Подлый Пит" может похвастаться остроумными диалогами, убедительными персонажами, актерской игрой высшей пробы, увлекательными экшен-сценами, а главное, витающим в воздухе духом приключений, что отсылает зрителей ко всем классическим авантюрным картинам - от "Аферы" до "Одиннадцати друзей Оушена". Герои сериала виртуозно впутываются в нелепые и при этом опасные ситуации, а нам только и остается, что, затаив дыхание, наблюдать и гадать, как же они выберутся из очередной передряги.


Сэмпл
Качество: WEB-DL 1080p (AMAZON)
Контейнер: MKV
Видео: H.264/AVC, 1920x1080p (1.78:1), 23.976 fps, ~6418 kbps, ~0.129 bit/pixel
Аудио №1: Русский E-AC3/DD+ 5.1, 48 kHz, 640 kbps
Аудио №2: Английский E-AC3/DD+ 5.1, 48 kHz, 640 kbps
Субтитры: Русские (Amazon), Русские (Forced), Английские (SDH)
Реклама: отсутствует
Работа со звуком itunestv@eniahd
Eng: Marius returns to the farm in hopes of finding a deeper connection with the Bernhardt's but his past soon catches up and tempts him back to the con life. Julia finds herself holding a big secret while serious legal issues put her life and the family business in jeopardy.
Rus:
General
Unique ID : 287020339808413897890218106198710640353 (0xD7EE1B513FEDF643BE5AC5D75EBD5EE1)
Complete name : Sneaky.Pete.S03E01.The.Double.Up.and.Back.1080p.AMZN.WEB-DL.H.264.RUS.LF.DDP5.1.SRT-EniaHD.mkv
Format : Matroska
Format version : Version 4
File size : 2.62 GiB
Duration : 48 min 44 s
Overall bit rate : 7 701 kb/s
Movie name : Sneaky Pete, Season 3 / The Double Up and Back
Track name/Position : 1
Track name/Total : 0
Description : Marius returns to the farm in hopes of finding a deeper connection with the Bernhardt's but his past soon catches up and tempts him back to the con life. Julia finds herself holding a big secret while serious legal issues put her life and the family business in jeopardy.
Released date : 2019-05-10T12:00:00
Writing application : mkvmerge v33.1.0 ('Primrose') 64-bit
Writing library : libebml v1.3.7 + libmatroska v1.5.0
Cover : Yes
Attachments : small_cover.jpg / cover.jpg

Video
ID : 1
Format : AVC
Format/Info : Advanced Video Codec
Format profile : High@L4
Format settings : CABAC / 4 Ref Frames
Format settings, CABAC : Yes
Format settings, ReFrames : 4 frames
Codec ID : V_MPEG4/ISO/AVC
Duration : 48 min 44 s
Bit rate mode : Constant
Bit rate : 6 418 kb/s
Nominal bit rate : 10 000 kb/s
Width : 1 920 pixels
Height : 1 080 pixels
Display aspect ratio : 16:9
Frame rate mode : Constant
Frame rate : 23.976 (24000/1001) FPS
Color space : YUV
Chroma subsampling : 4:2:0
Bit depth : 8 bits
Scan type : Progressive
Bits/(Pixel*Frame) : 0.129
Stream size : 2.19 GiB (83%)
Language : English
Default : Yes
Forced : No
Color range : Limited
Color primaries : BT.709
Transfer characteristics : BT.709
Matrix coefficients : BT.709

Audio #1
ID : 2
Format : E-AC-3
Format/Info : Enhanced AC-3
Commercial name : Dolby Digital Plus
Codec ID : A_EAC3
Duration : 48 min 44 s
Bit rate mode : Constant
Bit rate : 640 kb/s
Channel(s) : 6 channels
Channel layout : L R C LFE Ls Rs
Sampling rate : 48.0 kHz
Frame rate : 31.250 FPS (1536 SPF)
Compression mode : Lossy
Stream size : 223 MiB (8%)
Title : E-AC3 5.1 @ 640kbps - MVO, Lostfilm
Language : Russian
Service kind : Complete Main
Default : Yes
Forced : No
Released date : 2019-05-13T21:32:37Z

Audio #2
ID : 3
Format : E-AC-3
Format/Info : Enhanced AC-3
Commercial name : Dolby Digital Plus
Codec ID : A_EAC3
Duration : 48 min 44 s
Bit rate mode : Constant
Bit rate : 640 kb/s
Channel(s) : 6 channels
Channel layout : L R C LFE Ls Rs
Sampling rate : 48.0 kHz
Frame rate : 31.250 FPS (1536 SPF)
Compression mode : Lossy
Stream size : 223 MiB (8%)
Title : E-AC3 5.1 @ 640kbps - Original
Language : English
Service kind : Complete Main
Default : No
Forced : No

Text #1
ID : 4
Format : UTF-8
Codec ID : S_TEXT/UTF8
Codec ID/Info : UTF-8 Plain Text
Duration : 46 min 19 s
Bit rate : 105 b/s
Count of elements : 677
Stream size : 35.7 KiB (0%)
Title : Amazon
Language : Russian
Default : No
Forced : No

Text #2
ID : 5
Format : UTF-8
Codec ID : S_TEXT/UTF8
Codec ID/Info : UTF-8 Plain Text
Duration : 48 min 26 s
Bit rate : 79 b/s
Count of elements : 897
Stream size : 28.3 KiB (0%)
Title : SDH
Language : English
Default : No
Forced : No

Text #3
ID : 6
Format : UTF-8
Codec ID : S_TEXT/UTF8
Codec ID/Info : UTF-8 Plain Text
Duration : 48 min 26 s
Bit rate : 79 b/s
Count of elements : 894
Stream size : 28.3 KiB (0%)
Language : English
Default : No
Forced : No

Menu
00:00:00.000 : en:Amazon Original
00:00:05.000 : en:Previously on
00:03:07.000 : en:Opening Credits
00:03:42.000 : en:Julia confronts Marius
00:09:26.000 : en:Everyone wants to be a happy family
00:14:10.000 : en:Marius has a flashback
00:14:54.000 : en:Nobody's perfect
00:17:00.000 : en:A symbolic gesture
00:18:30.000 : en:Trying to get Julia out of jail
00:21:07.000 : en:Everybody has their own version of the truth
00:24:49.000 : en:Emotional heroin
00:27:09.000 : en:Scamming a scammer
00:30:39.000 : en:Marius is looking for new action
00:34:48.000 : en:Who does Marius want to be
00:43:36.000 : en:Julia confronts Audrey
00:46:01.000 : en:Back in the game
00:46:44.000 : en:End Credits
скриншот  скриншот  скриншот  
Когда раздача ведётся путём добавления новых серий, при каждом добавлении создётся новый торрент. Чтобы начать докачку новой серии, пользователям необходимо сделать следующее:
(1) остановить скачивание,
(2) удалить старый торрент у себя из клиента (старые серии удалять не надо),
(3) скачать новый торрент и запустить его у себя в клиенте вместо старого, при этом указать клиенту путь в старую папку, куда и должно происходить скачивание новых серий.
Ваш клиент при этом должен произвести хеширование (проверку) старой папки (если не производит сам - помогите ему сделать это), и будет докачивать только те серии, которых у вас ещё нет.Старые серии при этом не удаляются, а продолжают раздаваться!
Eсли вы уже удалили старые серии, то предотвратить повторную закачку старых серий можно, отжав галочку в соответсвующих местах при запуске нового торрента. По возможности, желательно не удалять старые серии как можно дольше, чтобы релизёр не столько продолжал раздавать старые серии, а смог сконцентрироваться на новых.
pb.wtf



Скачать Подлый Пит через торрент http://img14.lostpic.net/2019/05/14/3d3248ea346900a05597699c873ae223.png Скачать фильм Подлый Пит через торрент бесплантно в хорошем качестве Описание: "Подлый Пит" - остросюжетная криминальная драма онлайн-сервиса Amazon от звезды сериала "Во все тяжкие" Брайана Крэнстона и ... 10 10 4
Торрент: Зарегистрирован [2019-06-20 11:28] · скачан: 0 раз
Статус: √ проверено
Размер: 21.46 GB
Как cкачать? Как скачать Подлый Пит через торрент | qTorrent

% Раздел Тема Автор DL S | L
Зарубежные сериалы [ 12.27 GB ] Подлый Пит / Sneaky Pete / Сезон: 3 / Серии: 1-8 из 10 [2019 WEB-DL 720p] MVO [Lostfilm] bober100 Скачать
1 | 0


>> Регистрируемся здесь <<






Отзывы и комментарии о схеме читаем и пишем здесь: ---> Отзывы и комментарии о схеме

Новые благодарочки в телеграм довольных пользователей:
скриншот   скриншот   скриншот   скриншот   скриншот

09-06-2019 08:02 Подлый Пит Скачать торрент  

Спасибо. Сериал нравится. Уже привык к озвучке лостов. Но почему такой громадный размер? Это же не Автар со спецэффектами....pb.wtf
Kkillermax2013 писал(а):

как то так "Аудио №1: Русский E-AC3/DD+ 5.1, 48 kHz, 640 kbps
Аудио №2: Английский E-AC3/DD+ 5.1, 48 kHz, 640 kbps"
Шутейка про аватара засчитана ))



    Дорогой пользователь! Огромная просьба, поблагодарите релизера, оцените раздачу и оставьте свои комментарий, если Вы скачали Подлый Пит через торрент бесплатно! Внесите свою лепту в развитие PiratBit!
    Комментировать посты могут только пользователи прошедшие не сложную регистрацию
    Показать сообщения:    

    Подлый Пит через торрент
    Скачать бесплатно Подлый Пит
    Подлый Пит скачать торрент
    Подлый Пит смотреть онлайн
    Cкачать фильм Подлый Пит бесплатно
    Подлый Пит скачать торрент в хорошем качестве
    Подлый Пит смотреть онлайн бесплатно в хорошем качестве


    Вы не можете начинать темы
    Вы не можете отвечать на сообщения
    Вы не можете редактировать свои сообщения
    Вы не можете удалять свои сообщения
    Вы не можете голосовать в опросах
    Вы не можете прикреплять файлы к сообщениям
    Вы можете скачивать файлы