Наша группа ВК в очередной раз забанена мы уходим в Телеграм, присоединяйтесь!!!

Лицензия

30

iTunes

Как приручить дракона 3

iTunes

1

1 сезон

Чернобыль

iTunes

Снегоуборщик

iTunes

Закатать в асфальт

8 сезон

Игра престолов

iTunes

Ральф против интернета Хит недели

ИГРА 18+

pack

ВАЖНО

!!Акция!!

Alien_RageХит недели

RePack

Resident Evil 21
pack

RePack

Metro:Exodus

!!Акция!!

Alien_Rage

RePack

fifa19

RePack

Assassins Creed: Odyssey

RePack

NEED FOR SPEED™ PAYBACK

3 сезон

9 сезон

Бесстыжие 9 сезон

Все сериалы

все сериалы на PB.wtf

RePack

FAR CRY 5
Ребята, катастрофически не хватает 2730р. для оплаты серверов за АПРЕЛЬ (всвязи с блокировками трафик упал в 3 раза), 1-2р., выручайте.
  

Снегоуборщик / Cold Pursuit (Ханс Петтер Муланд) [2019 г., боевик, триллер, драма, криминал, BDRip 720p, Дубляж iTunes] pb.wtf

Снегоуборщик через торрент pb.wtf

Раздают: 40 [ 2 MB/s ] Качают: 3 [ 329 KB/s ]
Размер: 6.31 GB | Добавлен: 7 д. назад | Торрент скачан:242 раза
Скачать  

14-05-2019 13:49 Снегоуборщик Скачать торрент  

Снегоуборщик / Cold Pursuit
Год выпуска: 2019
Страна: Великобритания, Норвегия, Канада, США, Франция, Mas Films
Жанр: боевик, триллер, драма, криминал
Продолжительность: 01:59:00
Перевод: Дубляж iTunes
Субтитры: Русские, английские

Режиссер: Ханс Петтер Муланд

Премьера в мире: 7 февраля 2019

rating

В ролях: Лиам Нисон, Лора Дерн, Эмми Россам, Том Бейтман, Уильям Форсайт, Джулия Джонс, Майкл Нисон, Майкл Эклунд, Брэдли Страйкер, Уэсли МакИннес

Описание: Мистер Коксман - примерный семьянин и уважаемый гражданин, размеренная жизнь которого заканчивается, когда наркоторговцы убивают его сына. В поисках справедливости он с ледяным хладнокровием начинает изощренно убирать бандитов одного за другим.

Качество: BDRip 720p
Формат: MKV
Видео кодек: H.264
Аудио кодек: AC3, DTS
Видео: AVC, 5500 Кбит/с, 1280x536, 23.976 Кадр/с
Аудио1: 48 kHz, AC3, 5.1, 384 Kbps - (Русский дубляж)
Аудио2: 48 kHz, AC3, 2.0, 192 Kbps - Многоголосый (СВ Студия)
Аудио3: 48 kHz, DTS, 5.1, 1509 Kbps - Оригинал
Субтитры: Russian (Forced - BLUEBIRD, Full-length), English (Full-length, SDH)
Релиз от:
--2pass --slow-firstpass --preset veryslow --me umh --subme 10 --bframes 9 --deblock -3:-3 --ipratio 1.3 --pbratio 1.2 --psy-rd 1.05 --qcomp 0.6 --aq-strength 3.75 --merange 32 --no-fast-pskip --no-mbtree --no-dct-decimate

x264 [info]: frame I:1417 Avg QP:12.29 size:131637
x264 [info]: frame P:32959 Avg QP:14.32 size: 51535
x264 [info]: frame B:136817 Avg QP:15.33 size: 22093

Формат : Matroska
Версия формата : Version 4
Размер файла : 6,31 Гбайт
Продолжительность : 1 ч. 59 м.
Общий поток : 7587 Кбит/сек
Название фильма : Cold.Pursuit.2019.x264.BDRip.720p.Rus.Eng.BLUEBIRD
Дата кодирования : UTC 2019-05-14 11:31:57
Программа кодирования : mkvmerge v7.9.0 ('Birds') 64bit
Библиотека кодирования : libebml v1.3.1 + libmatroska v1.4.2

Видео
Идентификатор : 1
Формат : AVC
Формат/Информация : Advanced Video Codec
Профиль формата : High@L4.1
Настройки формата : CABAC / 12 Ref Frames
Параметр CABAC формата : Да
Параметр RefFrames формата : 12 кадров
Идентификатор кодека : V_MPEG4/ISO/AVC
Продолжительность : 1 ч. 59 м.
Битрейт : 5500 Кбит/сек
Ширина : 1280 пикселей
Высота : 536 пикселей
Соотношение сторон : 2,40:1
Режим частоты кадров : Постоянный
Частота кадров : 23,976 (24000/1001) кадра/сек
Цветовое пространство : YUV
Субдискретизация насыщенности : 4:2:0
Битовая глубина : 8 бит
Тип развёртки : Прогрессивная
Бит/(Пиксели*Кадры) : 0.334
Размер потока : 4,57 Гбайт (72%)
Заголовок : Cold.Pursuit.2019.x264.BDRip.720p.Rus.Eng.BLUEBIRD
Библиотека кодирования : x264 core 157 r2969 d4099dd
Настройки программы : cabac=1 / ref=12 / deblock=1:-3:-3 / analyse=0x3:0x113 / me=umh / subme=10 / psy=1 / psy_rd=1.05:0.00 / mixed_ref=1 / me_range=32 / chroma_me=1 / trellis=2 / 8x8dct=1 / cqm=0 / deadzone=21,11 / fast_pskip=0 / chroma_qp_offset=-2 / threads=6 / lookahead_threads=1 / sliced_threads=0 / nr=0 / decimate=0 / interlaced=0 / bluray_compat=0 / constrained_intra=0 / bframes=9 / b_pyramid=2 / b_adapt=2 / b_bias=0 / direct=3 / weightb=1 / open_gop=0 / weightp=2 / keyint=240 / keyint_min=23 / scenecut=40 / intra_refresh=0 / rc_lookahead=80 / rc=2pass / mbtree=0 / bitrate=5500 / ratetol=1.0 / qcomp=0.60 / qpmin=0 / qpmax=69 / qpstep=4 / cplxblur=20.0 / qblur=0.5 / vbv_maxrate=62500 / vbv_bufsize=78125 / nal_hrd=none / filler=0 / ip_ratio=1.30 / pb_ratio=1.20 / aq=3:0.75 / zones=3059,3721,b=1.8/8382,9201,b=1.8/9408,10926,b=1.8/20185,20616,b=1.8/23968,24877,b=1.7/28529,31787,b=1.7/32055,32475,b=1.8/42645,43071,b=1.8/54898,55117,b=1.8/154132,154959,b=1.8/158816,171192,b=0.25
Язык : English
Default : Да
Forced : Нет

Аудио #1
Идентификатор : 2
Формат : AC-3
Формат/Информация : Audio Coding 3
Коммерческое название : Dolby Digital
Идентификатор кодека : A_AC3
Продолжительность : 1 ч. 58 м.
Вид битрейта : Постоянный
Битрейт : 384 Кбит/сек
Каналы : 6 каналов
Channel layout : L R C LFE Ls Rs
Частота : 48,0 КГц
Частота кадров : 31,250 кадров/сек (1536 SPF)
Битовая глубина : 16 бит
Метод сжатия : С потерями
Размер потока : 327 Мбайт (5%)
Заголовок : Дублированный (iTunes)
Язык : Russian
ServiceKind/String : Complete Main
Default : Да
Forced : Нет

Аудио #2
Идентификатор : 3
Формат : AC-3
Формат/Информация : Audio Coding 3
Коммерческое название : Dolby Digital
Идентификатор кодека : A_AC3
Продолжительность : 1 ч. 58 м.
Вид битрейта : Постоянный
Битрейт : 192 Кбит/сек
Каналы : 2 канала
Channel layout : L R
Частота : 48,0 КГц
Частота кадров : 31,250 кадров/сек (1536 SPF)
Битовая глубина : 16 бит
Метод сжатия : С потерями
Размер потока : 163 Мбайт (3%)
Заголовок : Профессиональный многоголосый (СВ Студия)
Язык : Russian
ServiceKind/String : Complete Main
Default : Нет
Forced : Нет

Аудио #3
Идентификатор : 4
Формат : DTS
Формат/Информация : Digital Theater Systems
Идентификатор кодека : A_DTS
Продолжительность : 1 ч. 59 м.
Вид битрейта : Постоянный
Битрейт : 1509 Кбит/сек
Каналы : 6 каналов
Channel layout : C L R Ls Rs LFE
Частота : 48,0 КГц
Частота кадров : 93,750 кадра/сек (512 SPF)
Битовая глубина : 24 бит
Метод сжатия : С потерями
Размер потока : 1,25 Гбайт (20%)
Заголовок : DTS Audio 5.1 ch 1509 Kbps
Язык : English
Default : Нет
Forced : Нет

Текст #1
Идентификатор : 5
Формат : UTF-8
Идентификатор кодека : S_TEXT/UTF8
Идентификатор кодека/Информация : UTF-8 Plain Text
Продолжительность : 4 с. 733 мс.
Битрейт : 2144 бит/сек
ElementCount : 1
Размер потока : 1,24 Кбайт (0%)
Заголовок : Forced - BLUEBIRD
Язык : Russian
Default : Нет
Forced : Нет

Текст #2
Идентификатор : 6
Формат : UTF-8
Идентификатор кодека : S_TEXT/UTF8
Идентификатор кодека/Информация : UTF-8 Plain Text
Продолжительность : 1 ч. 48 м.
Битрейт : 62 бит/сек
ElementCount : 977
Размер потока : 50,2 Кбайт (0%)
Заголовок : Full-length
Язык : Russian
Default : Нет
Forced : Нет

Текст #3
Идентификатор : 7
Формат : UTF-8
Идентификатор кодека : S_TEXT/UTF8
Идентификатор кодека/Информация : UTF-8 Plain Text
Продолжительность : 1 ч. 45 м.
Битрейт : 41 бит/сек
ElementCount : 967
Размер потока : 31,8 Кбайт (0%)
Заголовок : Full-length
Язык : English
Default : Нет
Forced : Нет

Текст #4
Идентификатор : 8
Формат : UTF-8
Идентификатор кодека : S_TEXT/UTF8
Идентификатор кодека/Информация : UTF-8 Plain Text
Продолжительность : 1 ч. 49 м.
Битрейт : 45 бит/сек
ElementCount : 1129
Размер потока : 36,1 Кбайт (0%)
Заголовок : SDH
Язык : English
Default : Нет
Forced : Нет

Меню
00:00:00.000 : :Chapter 1
00:07:26.946 : :Chapter 2
00:13:19.257 : :Chapter 3
00:21:35.211 : :Chapter 4
00:29:35.649 : :Chapter 5
00:38:18.880 : :Chapter 6
00:45:11.876 : :Chapter 7
00:53:08.310 : :Chapter 8
01:01:23.513 : :Chapter 9
01:05:46.359 : :Chapter 10
01:14:04.857 : :Chapter 11
01:22:21.186 : :Chapter 12
01:31:40.954 : :Chapter 13
01:38:46.879 : :Chapter 14
01:45:20.939 : :Chapter 15
01:47:43.540 : :Chapter 16

Fixed OCR subs.
Logo Debanded.
Used zones bitrate in dark scenes.

pb.wtf



Скачать Снегоуборщик через торрент http://img14.lostpic.net/2019/05/14/f5e3ad54fc2176d035121f95edf5d4d0.png Скачать фильм Снегоуборщик через торрент бесплантно в хорошем качестве Описание: Мистер Коксман - примерный семьянин и уважаемый гражданин, размеренная жизнь которого заканчивается, когда наркоторговцы убивают ... 8 10 4
Info! Золотая раздача, скачанное не засчитывается.
Торрент: Зарегистрирован [2019-05-14 13:49] · скачан: 242 раз
Статус: √ проверено
Размер: 6.31 GB
Как cкачать? Как скачать Снегоуборщик через торрент | qTorrent

% Раздел Тема Автор DL S | L
Фильмы 2019 [DVDrip, WEB-DLRip, HDrip] (DUB, MVO) [ 1.46 GB ] Снегоуборщик / Cold Pursuit [2019 HDRip] killermax2013 Скачать
177 | 5
Фильмы [HD 720p, 1080p] (Хороший звук DUB, MVO) [ 11.74 GB ] Снегоуборщик / Cold Pursuit [2019 BDRip 1080p] + [MVO] killermax2013 Скачать
41 | 1
T Фильмы (WEB-DL 720p, 1080p) [ 4.28 GB ] Снегоуборщик / Cold Pursuit [2019 WEB-DL 1080p] MVO [CВ Студия] -Lexx- Скачать
40 | 0
Ultra HD (UHD: 2K, 4K, 8K) — видео сверхвысокой чёткости [ 74.22 GB ] Снегоуборщик / Cold Pursuit [2019 UHD Blu-ray 2160p] [Dolby Vision] sheker187 Скачать
1 | 0
Ultra HD (UHD: 2K, 4K, 8K) — видео сверхвысокой чёткости [ 17.12 GB ] Снегоуборщик / Cold Pursuit [2019 UHD BDRip 2160p] + MVO [СВ Студия] sheker187 Скачать
3 | 0
Ultra HD (UHD: 2K, 4K, 8K) — видео сверхвысокой чёткости [ 55.88 GB ] Снегоуборщик / Cold Pursuit [2019 UHD BDRemux 2160p] + MVO [СВ Студия] sheker187 Скачать
7 | 0
T Фильмы (WEB-DL 720p, 1080p) [ 3.11 GB ] Снегоуборщик / Cold Pursuit [2019 WEBRip 720p] MVO [СВ Студия] bober100 Скачать
6 | 0


>> Регистрируемся здесь <<






Отзывы и комментарии о схеме читаем и пишем здесь: ---> Отзывы и комментарии о схеме

Новые благодарочки в телеграм довольных пользователей:
скриншот   скриншот   скриншот   скриншот   скриншот
    Дорогой пользователь! Огромная просьба, поблагодарите релизера, оцените раздачу и оставьте свои комментарий, если Вы скачали Снегоуборщик через торрент бесплатно! Внесите свою лепту в развитие PiratBit!
    Комментировать посты могут только пользователи прошедшие не сложную регистрацию
    Показать сообщения:    

    Снегоуборщик через торрент
    Скачать бесплатно Снегоуборщик
    Снегоуборщик скачать торрент
    Снегоуборщик смотреть онлайн
    Cкачать фильм Снегоуборщик бесплатно
    Снегоуборщик скачать торрент в хорошем качестве
    Снегоуборщик смотреть онлайн бесплатно в хорошем качестве


    Вы не можете начинать темы
    Вы не можете отвечать на сообщения
    Вы не можете редактировать свои сообщения
    Вы не можете удалять свои сообщения
    Вы не можете голосовать в опросах
    Вы не можете прикреплять файлы к сообщениям
    Вы можете скачивать файлы