MEGA SALE -50% FORZA HORIZON 4 ULTIMATE+ВСЕ DLC+ОНЛАЙН всего за 599р. 299 руб. (супер цена). Внимание количество ограничено!!!

iTunes

1+1

iTunes

мы

iTunes

1

iTunes

Чернобыль

1 сезон

Ральф против интернета

Лицензия

ПШазам

Лицензия

Игра престолов

Лицензия

30
pack

ВАЖНО

!!Акция!!

Alien_RageХит недели

RePack

Resident Evil 21

ИГРА 18+

pack

RePack

Metro:Exodus

!!Акция!!

Alien_Rage

RePack

fifa19

RePack

Assassins Creed: Odyssey

RePack

NEED FOR SPEED™ PAYBACK

3 сезон

9 сезон

Бесстыжие 9 сезон

Все сериалы

все сериалы на PB.wtf

RePack

FAR CRY 5
Ребята, катастрофически не хватает 7730р. для оплаты серверов за ИЮЛЬ (всвязи с блокировками трафик упал в 3 раза), 1-2р., выручайте.
  

Парк развлечений / Eld & lågor / Swoon (Монс Морлинд / Måns Mårlind, Бьёрн Стейн / Björn Stein) [2019, мелодрама, WEB-DLRip-AVC] [Dub] [iTunes] pb.wtf

Парк развлечений через торрент pb.wtf

Раздают: 1 [ 0 KB/s ]
Размер: 1.48 GB | Добавлен: 3 мес. 7 д. назад | Торрент скачан:89 раз
Скачать  

14-05-2019 15:13 Парк развлечений Скачать торрент  

Парк развлечений / Eld & lågor / Swoon

Страна: Швеция
Жанр: мелодрама
Год выпуска: 2019
Продолжительность: 01:44:02
Перевод: Профессиональный (дублированный) [iTunes]
Субтитры: нет
Режиссеры: Монс Морлинд / Måns Mårlind, Бьёрн Стейн / Björn Stein
В ролях: Альбен Гренхольм, Фрида Густавссон, Леннарт Якель, Роберт Густафссон, Пернилла Аугуст, Хелена Аф Сандеберг, Эдвин Эндре, Инга Авемо Ходелл, Якоб Эрикссон, Сергей Онопко

Описание: Конец 1930-х годов, в Европе разгорается Вторая Мировая. В нейтральной Швеции идёт своя война между двумя парками аттракционов. В этой междоусобице их хозяева не скупятся на самые жёсткие приёмы.
rating
Сэмпл | скриншот  

Качество видео: WEB-DLRip-AVC
Формат видео: MKV

Видео: x264 (High@L4.1); 1040x432, Display aspect ratio 2.407:1, 23.976 fps, 1645 Kbps
Аудио: Русский: AC-3; 16 bits 48 Khz; 5.1ch 384 Kbps; CBR | Dub
avs [info]: 1040x432p 1:1 @ 24000/1001 fps (cfr)
x264 [info]: using SAR=1/1
x264 [info]: using cpu capabilities: MMX2 SSE2Fast SSSE3 SSE4.2
x264 [info]: profile High, level 4.1

x264 [info]: frame I:1059 Avg QP:14.53 size: 50986
x264 [info]: frame P:36914 Avg QP:16.30 size: 17665
x264 [info]: frame B:111685 Avg QP:18.60 size: 5171
x264 [info]: consecutive B-frames: 2.2% 2.7% 6.1% 57.7% 10.4% 16.7% 2.0% 1.6% 0.5% 0.2%
x264 [info]: mb I I16..4: 5.9% 73.9% 20.1%
x264 [info]: mb P I16..4: 0.5% 7.8% 0.9% P16..4: 30.1% 36.8% 13.6% 1.8% 0.2% skip: 8.3%
x264 [info]: mb B I16..4: 0.1% 0.7% 0.1% B16..8: 31.4% 20.6% 3.2% direct: 4.8% skip:39.2% L0:40.5% L1:45.8% BI:13.7%
x264 [info]: 8x8 transform intra:81.8% inter:57.5%
x264 [info]: direct mvs spatial:100.0% temporal:0.0%
x264 [info]: coded y,uvDC,uvAC intra: 90.7% 91.8% 75.7% inter: 18.9% 19.3% 3.6%
x264 [info]: i16 v,h,dc,p: 17% 14% 3% 66%
x264 [info]: i8 v,h,dc,ddl,ddr,vr,hd,vl,hu: 11% 7% 5% 9% 13% 14% 12% 14% 14%
x264 [info]: i4 v,h,dc,ddl,ddr,vr,hd,vl,hu: 12% 8% 4% 9% 15% 15% 13% 12% 13%
x264 [info]: i8c dc,h,v,p: 41% 21% 20% 18%
x264 [info]: Weighted P-Frames: Y:4.8% UV:3.0%
x264 [info]: ref P L0: 47.9% 8.7% 17.8% 6.0% 5.0% 3.3% 3.1% 1.5% 1.5% 1.2% 1.2% 0.9% 1.0% 0.9% 0.1% 0.0%
x264 [info]: ref B L0: 78.3% 10.2% 4.1% 2.0% 1.3% 1.1% 0.8% 0.5% 0.4% 0.4% 0.3% 0.3% 0.1%
x264 [info]: ref B L1: 96.3% 3.7%
x264 [info]: kb/s:1645.08

General
Unique ID : 246036018330481884097474077686805938513 (0xB918D04231CBF346818E46BB3465C151)
Complete name : Парк развлечений.2019.mkv
Format : Matroska
Format version : Version 2
File size : 1.48 GiB
Duration : 1 h 44 min
Overall bit rate : 2 031 kb/s
Encoded date : UTC 2019-05-14 12:10:33
Writing application : mkvmerge v7.8.0 ('River Man') 32bit built on Mar 27 2015 16:18:02
Writing library : libebml v1.3.1 + libmatroska v1.4.2

Video
ID : 1
Format : AVC
Format/Info : Advanced Video Codec
Format profile : High@L4.1
Format settings : CABAC / 14 Ref Frames
Format settings, CABAC : Yes
Format settings, ReFrames : 14 frames
Codec ID : V_MPEG4/ISO/AVC
Duration : 1 h 44 min
Bit rate : 1 606 kb/s
Width : 1 040 pixels
Height : 432 pixels
Display aspect ratio : 2.40:1
Frame rate mode : Constant
Frame rate : 23.976 (24000/1001) FPS
Color space : YUV
Chroma subsampling : 4:2:0
Bit depth : 8 bits
Scan type : Progressive
Bits/(Pixel*Frame) : 0.149
Stream size : 1.17 GiB (79%)
Title : Парк развлечений / Eld & lågor / Swoon 2019
Writing library : x264 core 152 r2851kMod ba24899
Encoding settings : cabac=1 / ref=14 / deblock=1:-3:-2 / analyse=0x3:0x133 / me=umh / subme=11 / psy=1 / fade_compensate=0.00 / psy_rd=1.01:0.00 / mixed_ref=1 / me_range=32 / chroma_me=1 / trellis=2 / 8x8dct=1 / cqm=0 / deadzone=21,11 / fast_pskip=1 / chroma_qp_offset=-2 / threads=12 / lookahead_threads=2 / sliced_threads=0 / nr=0 / decimate=1 / interlaced=0 / bluray_compat=0 / constrained_intra=0 / bframes=9 / b_pyramid=2 / b_adapt=2 / b_bias=0 / direct=3 / weightb=1 / open_gop=0 / weightp=2 / keyint=250 / keyint_min=23 / scenecut=40 / intra_refresh=0 / rc_lookahead=80 / rc=crf / mbtree=0 / crf=18.0000 / qcomp=0.65 / qpmin=0 / qpmax=69 / qpstep=4 / vbv_maxrate=62500 / vbv_bufsize=78125 / crf_max=0.0 / nal_hrd=none / filler=0 / ip_ratio=1.40 / pb_ratio=1.30 / aq=3:0.80 / zones=0,475,crf=14/141026,149658,crf=19
Language : Swedish
Default : Yes
Forced : No
Color range : Limited
Color primaries : BT.709
Transfer characteristics : BT.709
Matrix coefficients : BT.709

Audio
ID : 2
Format : AC-3
Format/Info : Audio Coding 3
Codec ID : A_AC3
Duration : 1 h 44 min
Bit rate mode : Constant
Bit rate : 384 kb/s
Channel(s) : 6 channels
Channel positions : Front: L C R, Side: L R, LFE
Sampling rate : 48.0 kHz
Frame rate : 31.250 FPS (1536 SPF)
Bit depth : 16 bits
Compression mode : Lossy
Stream size : 286 MiB (19%)
Title : AC-3; 16 bits 48 Khz; 5.1ch 384 Kbps; CBR | Dub (iTunes)
Language : Russian
Service kind : Complete Main
Default : Yes
Forced : No
скриншот  скриншот  скриншот  
pb.wtf



Скачать Парк развлечений через торрент http://img14.lostpic.net/2019/05/14/c65eca20b2647885ce7e114f10ab0540.png Скачать фильм Парк развлечений через торрент бесплантно в хорошем качестве Описание: Конец 1930-х годов, в Европе разгорается Вторая Мировая. В нейтральной Швеции идёт своя война между двумя парками аттракционов. В ... 10 10 3
Торрент: Зарегистрирован [2019-05-14 15:13] · скачан: 89 раз
Статус: √ проверено
Размер: 1.48 GB
Как cкачать? Как скачать Парк развлечений через торрент | qTorrent


>> Регистрируемся здесь <<






Отзывы и комментарии о схеме читаем и пишем здесь: ---> Отзывы и комментарии о схеме

Новые благодарочки в телеграм довольных пользователей:
скриншот   скриншот   скриншот   скриншот   скриншот
    Дорогой пользователь! Огромная просьба, поблагодарите релизера, оцените раздачу и оставьте свои комментарий, если Вы скачали Парк развлечений через торрент бесплатно! Внесите свою лепту в развитие PiratBit!
    Комментировать посты могут только пользователи прошедшие не сложную регистрацию
    Показать сообщения:    

    Парк развлечений через торрент
    Скачать бесплатно Парк развлечений
    Парк развлечений скачать торрент
    Парк развлечений смотреть онлайн
    Cкачать фильм Парк развлечений бесплатно
    Парк развлечений скачать торрент в хорошем качестве
    Парк развлечений смотреть онлайн бесплатно в хорошем качестве


    Вы не можете начинать темы
    Вы не можете отвечать на сообщения
    Вы не можете редактировать свои сообщения
    Вы не можете удалять свои сообщения
    Вы не можете голосовать в опросах
    Вы не можете прикреплять файлы к сообщениям
    Вы можете скачивать файлы