Наша группа ВК в очередной раз забанена мы уходим в Телеграм, присоединяйтесь!!!

Лицензия

30

iTunes

мы

iTunes

1

1 сезон

Чернобыль

iTunes

1+1

iTunes

Закатать в асфальт

8 сезон

Игра престолов

1 сезон

Ральф против интернета

ИГРА 18+

pack

ВАЖНО

!!Акция!!

Alien_RageХит недели

RePack

Resident Evil 21
pack

RePack

Metro:Exodus

!!Акция!!

Alien_Rage

RePack

fifa19

RePack

Assassins Creed: Odyssey

RePack

NEED FOR SPEED™ PAYBACK

3 сезон

9 сезон

Бесстыжие 9 сезон

Все сериалы

все сериалы на PB.wtf

RePack

FAR CRY 5
Ребята, катастрофически не хватает 2730р. для оплаты серверов за АПРЕЛЬ (всвязи с блокировками трафик упал в 3 раза), 1-2р., выручайте.
  

Добейся успеха / Bring It On (Пейтон Рид) [2000 г., мелодрама, комедия, спорт, BDRip 720p] [DUB, MVO, DVO] pb.wtf

Добейся успеха через торрент pb.wtf

Раздают: 1 [ 0 KB/s ]
Размер: 7.6 GB | Добавлен: 9 д. назад | Торрент скачан:15 раз
Скачать  

14-05-2019 17:14 Добейся успеха Скачать торрент  

Добейся успеха / Bring It On
Год выпуска: 2000
Страна: США, Beacon Communications LLC
Жанр: мелодрама, комедия, спорт
Продолжительность: 01:38:46
Перевод: Дубляж, многоголосый, двухголосый
Субтитры: Русские, английские

Режиссер: Пейтон Рид

rating

В ролях: Кирстен Данст, Элиза Душку, Джесси Брэдфорд, Гэбриэл Юнион, Клер Крамер, Николь Бильдербак, Цианина Джоелсон, Рини Белл, Натан Уэст, Хантли Риттер, Энн Флетчер

Описание: Между девчонками из групп поддержки спортивных команд разгорается нешуточная борьба за звание лучшей. В ход идут самые неожиданные приёмы и ухищрения. Но чтобы стать первой, команде нужно победить в национальном чемпионате, а этого смогут добиться только самые красивые, талантливые, задорные и сексуальные.

Качество: BDRip 720p
Формат: MKV
Видео кодек: H.264
Аудио кодек: AC3, DTS
Видео: AVC, 8282 Кбит/с, 1280x694, 23.976 Кадр/с
Аудио1: 48 kHz, AC3, 2.0, 192 Kbps - Дубляж (Мосфильм)
Аудио2: 48 kHz, AC3, 5.1, 448 Kbps - Многоголосый (Микс Медиа)
Аудио3: 48 kHz, AC3, 2.0, 192 Kbps - Многоголосый (Т/к Россия)
Аудио4: 48 kHz, AC3, 5.1, 384 Kbps - Двухголосый (Екатеринбург Арт)
Аудио5: 48 kHz, DTS, 5.1, 1509 Kbps - Оригинал
Субтитры: Russian (Full-length), English (Full-length, SDH)
Релиз от:
--2pass --slow-firstpass --preset veryslow --me umh --subme 10 --bframes 7 --deblock -2:-2 --ipratio 1.3 --pbratio 1.2 --psy-rd 1.06 --qcomp 0.6 --aq-strength 3.75 --merange 32 --no-fast-pskip --no-mbtree --no-dct-decimate

x264 [info]: frame I:1532 Avg QP:15.58 size:122649
x264 [info]: frame P:30116 Avg QP:17.61 size: 64508
x264 [info]: frame B:110442 Avg QP:18.78 size: 36263

Формат : Matroska
Версия формата : Version 4
Размер файла : 7,60 Гбайт
Продолжительность : 1 ч. 38 м.
Общий поток : 11,0 Мбит/сек
Название фильма : Bring.It.On.2000.x264.BDRip.720p.Rus.Eng.BLUEBIRD
Дата кодирования : UTC 2019-05-07 12:35:13
Программа кодирования : mkvmerge v7.9.0 ('Birds') 64bit
Библиотека кодирования : libebml v1.3.1 + libmatroska v1.4.2

Видео
Идентификатор : 1
Формат : AVC
Формат/Информация : Advanced Video Codec
Профиль формата : High@L4.1
Настройки формата : CABAC / 9 Ref Frames
Параметр CABAC формата : Да
Параметр RefFrames формата : 9 кадров
Идентификатор кодека : V_MPEG4/ISO/AVC
Продолжительность : 1 ч. 38 м.
Битрейт : 8282 Кбит/сек
Ширина : 1280 пикселей
Высота : 694 пикселя
Соотношение сторон : 1,85:1
Режим частоты кадров : Постоянный
Частота кадров : 23,976 (24000/1001) кадра/сек
Цветовое пространство : YUV
Субдискретизация насыщенности : 4:2:0
Битовая глубина : 8 бит
Тип развёртки : Прогрессивная
Бит/(Пиксели*Кадры) : 0.389
Размер потока : 5,71 Гбайт (75%)
Заголовок : Bring.It.On.2000.x264.BDRip.720p.Rus.Eng.BLUEBIRD
Библиотека кодирования : x264 core 157 r2969 d4099dd
Настройки программы : cabac=1 / ref=9 / deblock=1:-2:-2 / analyse=0x3:0x113 / me=umh / subme=10 / psy=1 / psy_rd=1.06:0.00 / mixed_ref=1 / me_range=32 / chroma_me=1 / trellis=2 / 8x8dct=1 / cqm=0 / deadzone=21,11 / fast_pskip=0 / chroma_qp_offset=-2 / threads=6 / lookahead_threads=1 / sliced_threads=0 / nr=0 / decimate=0 / interlaced=0 / bluray_compat=0 / constrained_intra=0 / bframes=7 / b_pyramid=2 / b_adapt=2 / b_bias=0 / direct=3 / weightb=1 / open_gop=0 / weightp=2 / keyint=240 / keyint_min=23 / scenecut=40 / intra_refresh=0 / rc_lookahead=80 / rc=2pass / mbtree=0 / bitrate=8282 / ratetol=1.0 / qcomp=0.60 / qpmin=0 / qpmax=69 / qpstep=4 / cplxblur=20.0 / qblur=0.5 / vbv_maxrate=62500 / vbv_bufsize=78125 / nal_hrd=none / filler=0 / ip_ratio=1.30 / pb_ratio=1.20 / aq=3:0.75 / zones=0,692,b=0.35/36612,37773,b=1.5/39667,40049,b=1.5/44694,46095,b=1.5/135412,142089,b=0.25
Язык : English
Default : Да
Forced : Нет

Аудио #1
Идентификатор : 2
Формат : AC-3
Формат/Информация : Audio Coding 3
Коммерческое название : Dolby Digital
Идентификатор кодека : A_AC3
Продолжительность : 1 ч. 38 м.
Вид битрейта : Постоянный
Битрейт : 192 Кбит/сек
Каналы : 2 канала
Channel layout : L R
Частота : 48,0 КГц
Частота кадров : 31,250 кадров/сек (1536 SPF)
Битовая глубина : 16 бит
Метод сжатия : С потерями
Размер потока : 136 Мбайт (2%)
Заголовок : Дублированный (Мосфильм)
Язык : Russian
ServiceKind/String : Complete Main
Default : Да
Forced : Нет

Аудио #2
Идентификатор : 3
Формат : AC-3
Формат/Информация : Audio Coding 3
Коммерческое название : Dolby Digital
Идентификатор кодека : A_AC3
Продолжительность : 1 ч. 38 м.
Вид битрейта : Постоянный
Битрейт : 448 Кбит/сек
Каналы : 6 каналов
Channel layout : L R C LFE Ls Rs
Частота : 48,0 КГц
Частота кадров : 31,250 кадров/сек (1536 SPF)
Битовая глубина : 16 бит
Метод сжатия : С потерями
Размер потока : 317 Мбайт (4%)
Заголовок : Профессиональный многоголосый (Микс Медиа)
Язык : Russian
ServiceKind/String : Complete Main
Default : Нет
Forced : Нет

Аудио #3
Идентификатор : 4
Формат : AC-3
Формат/Информация : Audio Coding 3
Коммерческое название : Dolby Digital
Идентификатор кодека : A_AC3
Продолжительность : 1 ч. 38 м.
Вид битрейта : Постоянный
Битрейт : 192 Кбит/сек
Каналы : 2 канала
Channel layout : L R
Частота : 48,0 КГц
Частота кадров : 31,250 кадров/сек (1536 SPF)
Битовая глубина : 16 бит
Метод сжатия : С потерями
Размер потока : 136 Мбайт (2%)
Заголовок : Профессиональный многоголосый (Т/к Россия)
Язык : Russian
ServiceKind/String : Complete Main
Default : Нет
Forced : Нет

Аудио #4
Идентификатор : 5
Формат : AC-3
Формат/Информация : Audio Coding 3
Коммерческое название : Dolby Digital
Идентификатор кодека : A_AC3
Продолжительность : 1 ч. 38 м.
Вид битрейта : Постоянный
Битрейт : 384 Кбит/сек
Каналы : 6 каналов
Channel layout : L R C LFE Ls Rs
Частота : 48,0 КГц
Частота кадров : 31,250 кадров/сек (1536 SPF)
Битовая глубина : 16 бит
Метод сжатия : С потерями
Размер потока : 271 Мбайт (3%)
Заголовок : Профессиональный двухголосый (Екатеринбург Арт)
Язык : Russian
ServiceKind/String : Complete Main
Default : Нет
Forced : Нет

Аудио #5
Идентификатор : 6
Формат : DTS
Формат/Информация : Digital Theater Systems
Идентификатор кодека : A_DTS
Продолжительность : 1 ч. 38 м.
Вид битрейта : Постоянный
Битрейт : 1509 Кбит/сек
Каналы : 6 каналов
Channel layout : C L R Ls Rs LFE
Частота : 48,0 КГц
Частота кадров : 93,750 кадра/сек (512 SPF)
Битовая глубина : 24 бит
Метод сжатия : С потерями
Размер потока : 1,04 Гбайт (14%)
Заголовок : DTS Audio 5.1 ch 1509 Kbps
Язык : English
Default : Нет
Forced : Нет

Текст #1
Идентификатор : 7
Формат : UTF-8
Идентификатор кодека : S_TEXT/UTF8
Идентификатор кодека/Информация : UTF-8 Plain Text
Продолжительность : 1 ч. 33 м.
Битрейт : 104 бит/сек
ElementCount : 1112
Размер потока : 71,5 Кбайт (0%)
Заголовок : Full-length
Язык : Russian
Default : Нет
Forced : Нет

Текст #2
Идентификатор : 8
Формат : UTF-8
Идентификатор кодека : S_TEXT/UTF8
Идентификатор кодека/Информация : UTF-8 Plain Text
Продолжительность : 1 ч. 33 м.
Битрейт : 72 бит/сек
ElementCount : 1555
Размер потока : 49,9 Кбайт (0%)
Заголовок : Full-length
Язык : English
Default : Нет
Forced : Нет

Меню
00:00:00.000 : :Chapter 01
00:02:50.086 : :Chapter 02
00:02:58.761 : :Chapter 03
00:05:10.268 : :Chapter 04
00:09:34.156 : :Chapter 05
00:12:43.763 : :Chapter 06
00:15:55.454 : :Chapter 07
00:22:17.210 : :Chapter 08
00:30:29.327 : :Chapter 09
00:42:55.406 : :Chapter 10
00:44:43.097 : :Chapter 11
00:50:49.546 : :Chapter 12
00:55:23.987 : :Chapter 13
01:02:51.809 : :Chapter 14
01:05:06.736 : :Chapter 15
01:09:03.514 : :Chapter 16
01:13:54.972 : :Chapter 17
01:15:10.881 : :Chapter 18
01:27:30.036 : :Chapter 19
01:30:58.578 : :Chapter 20

Fixed OCR subs.
Logo Debanded.
Used zones bitrate in dark scenes.

pb.wtf



Скачать Добейся успеха через торрент http://img14.lostpic.net/2019/05/14/0c099ae21f9b272eb80b7958ce8dabb9.png Скачать фильм Добейся успеха через торрент бесплантно в хорошем качестве Описание: Между девчонками из групп поддержки спортивных команд разгорается нешуточная борьба за звание лучшей. В ход идут самые ... 9.4 10 5
Info! Золотая раздача, скачанное не засчитывается.
Торрент: Зарегистрирован [2019-05-14 17:14] · скачан: 15 раз
Статус: √ проверено
Размер: 7.6 GB
Как cкачать? Как скачать Добейся успеха через торрент | qTorrent

% Раздел Тема Автор DL S | L
# Фильмы до 2000 г. [ 1.37 GB ] Добейся успеха / Bring It On [2000 DVDRip ] fisker from DREAM Paragon Скачать
1 | 0
Сборники на DVD и Сиквелы [DVDrip, WEB-DLRip, HDrip, BDRip] [ 4.29 GB ] Добейся успеха 12345 / Bring it on 12345 [2000 2004 2006 2007 2009 г DVD/HDRip-AVC] XLASER Скачать
3 | 0
Фильмы 2009 [ 1.37 GB ] Добейся успеха. Борись до конца! / Bring It On: Fight to the Finish [2009 HDTV] Светлана999999 Скачать
1 | 0
Фильмы 2009 [ 1.37 GB ] Добейся успеха: Борись до конца! / Bring It On: Fight to the Finish [2009 DVDRip] DEVI Скачать
1 | 0


>> Регистрируемся здесь <<






Отзывы и комментарии о схеме читаем и пишем здесь: ---> Отзывы и комментарии о схеме

Новые благодарочки в телеграм довольных пользователей:
скриншот   скриншот   скриншот   скриншот   скриншот
    Дорогой пользователь! Огромная просьба, поблагодарите релизера, оцените раздачу и оставьте свои комментарий, если Вы скачали Добейся успеха через торрент бесплатно! Внесите свою лепту в развитие PiratBit!
    Комментировать посты могут только пользователи прошедшие не сложную регистрацию
    Показать сообщения:    

    Добейся успеха через торрент
    Скачать бесплатно Добейся успеха
    Добейся успеха скачать торрент
    Добейся успеха смотреть онлайн
    Cкачать фильм Добейся успеха бесплатно
    Добейся успеха скачать торрент в хорошем качестве
    Добейся успеха смотреть онлайн бесплатно в хорошем качестве


    Вы не можете начинать темы
    Вы не можете отвечать на сообщения
    Вы не можете редактировать свои сообщения
    Вы не можете удалять свои сообщения
    Вы не можете голосовать в опросах
    Вы не можете прикреплять файлы к сообщениям
    Вы можете скачивать файлы