Наша группа ВК в очередной раз забанена мы уходим в Телеграм, присоединяйтесь!!!

Лицензия

30

iTunes

мы

iTunes

1

1 сезон

Чернобыль

iTunes

1+1

iTunes

Закатать в асфальт

8 сезон

Игра престолов

1 сезон

Ральф против интернета

ИГРА 18+

pack

ВАЖНО

!!Акция!!

Alien_RageХит недели

RePack

Resident Evil 21
pack

RePack

Metro:Exodus

!!Акция!!

Alien_Rage

RePack

fifa19

RePack

Assassins Creed: Odyssey

RePack

NEED FOR SPEED™ PAYBACK

3 сезон

9 сезон

Бесстыжие 9 сезон

Все сериалы

все сериалы на PB.wtf

RePack

FAR CRY 5
Ребята, катастрофически не хватает 2730р. для оплаты серверов за АПРЕЛЬ (всвязи с блокировками трафик упал в 3 раза), 1-2р., выручайте.
  

Пятнадцать минут войны / L'Intervention (Фред Гривуа) [2019 г., Боевик, драма, военный, история, WEB-DLRip,Любительский (многоголосый)(MUZOBOZ) ] pb.wtf

Пятнадцать минут войны через торрент pb.wtf

Раздают: 8 [ 7 KB/s ]
Размер: 1.33 GB | Добавлен: 9 д. назад | Торрент скачан:208 раз
Скачать  

15-05-2019 03:23 Пятнадцать минут войны Скачать торрент  

Пятнадцать минут войны / L'Intervention
Год выпуска: 2019
Страна: Франция, Бельгия / SND Groupe M6, Versus Production, C8 Films
Жанр: Боевик, драма, военный, история
Продолжительность: 01:37:33
Перевод: Любительский (многоголосый)(MUZOBOZ)
Субтитры: Отсутствуют

Режиссер: Фред Гривуа

rating

В ролях: Альбан Ленуар, Ольга Куриленко, Себастьян Лаланн, Давид Муржиа, Микаэль Абитбуль, Гийом Лаббе, Бен Кура, Венсан Перес, Жозиан Баласко, Кевин Лэйн

Описание: В феврале 1976 года в Джибути террористами был захвачен автобус со школьниками. Была организована операция по спасению детей с участием группы вмешательства национальной жандармерии Франции.

Доп. информация: Присутствуют вставки текстовой рекламы

Качество: WEB-DLRip
Формат: AVI
Видео кодек: XviD
Аудио кодек: AC3
Видео: XviD, 720x304, ~1557 Kbps
Аудио#1: AC-3, 2 ch, 384 Kbps
скриншот   скриншот   скриншот   скриншот  

Общее
Полное имя : C:\XX\Пятнадцать минут войны\LIntervention 2019 WEB-DLRip.avi
Формат : AVI
Формат/Информация : Audio Video Interleave
Профиль формата : OpenDML
Размер файла : 1,33 Гбайт
Продолжительность : 1 ч. 37 м.
Общий поток : 1954 Кбит/сек

Видео
Идентификатор : 0
Формат : MPEG-4 Visual
Профиль формата : Advanced Simple@L5
Параметр BVOP формата : 2
Параметр QPel формата : Нет
Параметр GMC формата : Без точки перехода
Параметр матрицы формата : Default (H.263)
Идентификатор кодека : XVID
Идентификатор кодека/Подсказка : XviD
Продолжительность : 1 ч. 37 м.
Битрейт : 1557 Кбит/сек
Ширина : 720 пикселей
Высота : 304 пикселя
Соотношение сторон : 2,35:1
Частота кадров : 23,976 (24000/1001) кадра/сек
Частота кадров в оригинале : 2,395 кадра/сек
Цветовое пространство : YUV
Субдискретизация насыщенности : 4:2:0
Битовая глубина : 8 бит
Тип развёртки : Прогрессивная
Метод сжатия : С потерями
Бит/(Пиксели*Кадры) : 0.297
Размер потока : 1,06 Гбайт (80%)
Библиотека кодирования : XviD 1.2.1 (UTC 2008-12-04)

Аудио
Идентификатор : 1
Формат : AC-3
Формат/Информация : Audio Coding 3
Коммерческое название : Dolby Digital
Идентификатор кодека : 2000
Продолжительность : 1 ч. 37 м.
Вид битрейта : Постоянный
Битрейт : 384 Кбит/сек
Каналы : 2 канала
Channel layout : L R
Частота : 48,0 КГц
Частота кадров : 31,250 кадров/сек (1536 SPF)
Битовая глубина : 16 бит
Метод сжатия : С потерями
Размер потока : 268 Мбайт (20%)
Выравнивание : Соединение по промежуткам
Продолжительность промежутка : 32 мс. (0,77 видеокадр)
ServiceKind/String : Complete Main

pb.wtf



Скачать Пятнадцать минут войны через торрент http://pic1.kartinco.top/images/12/r7n7i.jpg Скачать фильм Пятнадцать минут войны через торрент бесплантно в хорошем качестве Описание: В феврале 1976 года в Джибути террористами был захвачен автобус со школьниками. Была организована операция по спасению детей с ... 10 10 5
Торрент: Зарегистрирован [2019-05-15 03:23] · скачан: 208 раз
Статус: T временная
Размер: 1.33 GB
Как cкачать? Как скачать Пятнадцать минут войны через торрент | qTorrent


>> Регистрируемся здесь <<






Отзывы и комментарии о схеме читаем и пишем здесь: ---> Отзывы и комментарии о схеме

Новые благодарочки в телеграм довольных пользователей:
скриншот   скриншот   скриншот   скриншот   скриншот
    Дорогой пользователь! Огромная просьба, поблагодарите релизера, оцените раздачу и оставьте свои комментарий, если Вы скачали Пятнадцать минут войны через торрент бесплатно! Внесите свою лепту в развитие PiratBit!
    Комментировать посты могут только пользователи прошедшие не сложную регистрацию
    Показать сообщения:    

    Пятнадцать минут войны через торрент
    Скачать бесплатно Пятнадцать минут войны
    Пятнадцать минут войны скачать торрент
    Пятнадцать минут войны смотреть онлайн
    Cкачать фильм Пятнадцать минут войны бесплатно
    Пятнадцать минут войны скачать торрент в хорошем качестве
    Пятнадцать минут войны смотреть онлайн бесплатно в хорошем качестве


    Вы не можете начинать темы
    Вы не можете отвечать на сообщения
    Вы не можете редактировать свои сообщения
    Вы не можете удалять свои сообщения
    Вы не можете голосовать в опросах
    Вы не можете прикреплять файлы к сообщениям
    Вы можете скачивать файлы