Наша группа ВК в очередной раз забанена мы уходим в Телеграм, присоединяйтесь!!!

Лицензия

30

iTunes

мы

iTunes

1

1 сезон

Чернобыль

iTunes

1+1

iTunes

Закатать в асфальт

8 сезон

Игра престолов

1 сезон

Ральф против интернета

ИГРА 18+

pack

ВАЖНО

!!Акция!!

Alien_RageХит недели

RePack

Resident Evil 21
pack

RePack

Metro:Exodus

!!Акция!!

Alien_Rage

RePack

fifa19

RePack

Assassins Creed: Odyssey

RePack

NEED FOR SPEED™ PAYBACK

3 сезон

9 сезон

Бесстыжие 9 сезон

Все сериалы

все сериалы на PB.wtf

RePack

FAR CRY 5
Ребята, катастрофически не хватает 2730р. для оплаты серверов за АПРЕЛЬ (всвязи с блокировками трафик упал в 3 раза), 1-2р., выручайте.
  

Красивая жизнь / Taking Care of Business (Артур Хиллер) [1990, комедия, BDRip 720p by msltel] DUB, 2 x MVO, 3 x AVO pb.wtf

Красивая жизнь через торрент pb.wtf

Раздают: 5 [ 0 KB/s ]
Размер: 5.62 GB | Добавлен: 8 д. назад | Торрент скачан:33 раза
Скачать  

15-05-2019 05:28 Красивая жизнь Скачать торрент  

Название: Красивая жизнь
Оригинальное название: Taking Care of Business
Год выпуска: 1990
Страна: США
Жанр: комедия
Продолжительность: 01:48:03
Перевод:дублированный, профессиональный многоголосый, авторский

Режиссер: Артур Хиллер
В ролях: Джеймс Белуши, Чарльз Гродин, Энн Де Сальво, Лорин Локлин, Стивен Эллиот, Гектор Элизондо, Вероника Хэмел, Мако, Гейтс МакФэдден, Джон де Ланси, Том Шарп, Кен Фори, Джон Маршалл Джонс, Андре Рози Браун, Терренс МакНэлли, Ленни Хикс, Джо Брэтчер, Бёрк Бирнс, Тони Ауэр, Стэнли ДеСантис, Томми Морган мл., Бадди Дэниелс, Крис Барнс, Джилл Джонсон, Том Нолан, Марджори Брэнсфилд, Сэльма Арчерд, Джо Лерер, Хоуи Гума, Элизабет Баррет, Том Тальянг, Мишель Хэррел, Стью Нэхен, Эндрю Амадор, Сандра Энг, Луиса Абернати, Майкл МакНаб, Майкл Кинни, Лесли Сюзен, Джанет Джулиан, Дэн Керн, Дэвид Рупрехт, Уайтби Хертфорд, Джо Торре

О фильме: Что может означать для преуспевающего бизнесмена потеря органайзера со всеми кредитными карточками, наличными деньгами и ключами от особняка в Малибу? Именно это предстоит выяснить Спенсеру Барнсу, преуспевающему рекламному менеджеру. Но настоящие неприятности для него начинаются тогда, когда его органайзер попадает в руки сбежавшего из тюрьмы Джимми Дворски, который проводит больше времени в заключении, чем на свободе. С этого момента жизнь обоих настолько круто меняется, что дух захватывает...



Качество: BDRip 720p
Формат: MKV
Видео: MPEG-4 AVC, 6104 Кбит/с, 1280x694, 23.976 кадр/с
Аудио 1: русский, AC3, 192 kbps, 2 ch, 48 kHz [дублированный, BГТРК]
Аудио 2: русский, AC3, 192 kbps, 2 ch, 48 kHz [закадровый многоголосый, CTC]
Аудио 3: русский, AC3, 192 kbps, 2 ch, 48 kHz [закадровый многоголосый, OPT]
Аудио 4: русский, AC3, 192 kbps, 2 ch, 48 kHz [авторский, Андрей Гаврилов]
Аудио 5: русский, AC3, 192 kbps, 2 ch, 48 kHz [авторский, Виктор Махонько]
Аудио 6: русский, AC3, 192 kbps, 2 ch, 48 kHz [авторский, Алексей Михалёв]
Аудио 7: английский, AC3, 192 kbps, 2 ch, 48 kHz [оригинал]
Субтитры: английские
Главы/чаптеры
Общее
Уникальный идентификатор : 174037881148966805527971719145601227719 (0x82EE7A07746963DE9EE63CD0A8FDDBC7)
Полное имя : D:\Video\Красивая жизнь.1990.BDRip 720p by msltel.mkv
Формат : Matroska
Версия формата : Version 4
Размер файла : 5,62 Гбайт
Продолжительность : 1 ч. 48 м.
Общий поток : 7452 Кбит/сек
Название фильма : Rip by msltel
Дата кодирования : UTC 2019-05-15 01:39:05
Программа кодирования : mkvmerge v8.2.0 ('World of Adventure') 64bit
Библиотека кодирования : libebml v1.3.1 + libmatroska v1.4.2

Видео
Идентификатор : 1
Формат : AVC
Формат/Информация : Advanced Video Codec
Профиль формата : High@L4.1
Настройки формата : CABAC / 9 Ref Frames
Параметр CABAC формата : Да
Параметр RefFrames формата : 9 кадров
Идентификатор кодека : V_MPEG4/ISO/AVC
Продолжительность : 1 ч. 48 м.
Битрейт : 6104 Кбит/сек
Ширина : 1280 пикселей
Высота : 694 пикселя
Соотношение сторон : 1,85:1
Режим частоты кадров : Постоянный
Частота кадров : 23,976 (24000/1001) кадра/сек
Цветовое пространство : YUV
Субдискретизация насыщенности : 4:2:0
Битовая глубина : 8 бит
Тип развёртки : Прогрессивная
Бит/(Пиксели*Кадры) : 0.287
Размер потока : 4,61 Гбайт (82%)
Библиотека кодирования : x264 core 157 r2935 545de2f
Настройки программы : cabac=1 / ref=9 / deblock=1:-2:-2 / analyse=0x3:0x113 / me=umh / subme=11 / psy=1 / psy_rd=1.00:0.15 / mixed_ref=1 / me_range=32 / chroma_me=1 / trellis=2 / 8x8dct=1 / cqm=0 / deadzone=21,11 / fast_pskip=0 / chroma_qp_offset=-3 / threads=6 / lookahead_threads=1 / sliced_threads=0 / nr=0 / decimate=1 / interlaced=0 / bluray_compat=0 / constrained_intra=0 / bframes=11 / b_pyramid=2 / b_adapt=2 / b_bias=0 / direct=1 / weightb=1 / open_gop=0 / weightp=2 / keyint=230 / keyint_min=23 / scenecut=40 / intra_refresh=0 / rc_lookahead=40 / rc=crf / mbtree=1 / crf=19.0 / qcomp=0.60 / qpmin=0 / qpmax=69 / qpstep=4 / vbv_maxrate=50000 / vbv_bufsize=62500 / crf_max=0.0 / nal_hrd=none / filler=0 / ip_ratio=1.40 / aq=1:1.00
Язык : English
Default : Да
Forced : Нет

Аудио #1
Идентификатор : 2
Формат : AC-3
Формат/Информация : Audio Coding 3
Коммерческое название : Dolby Digital
Идентификатор кодека : A_AC3
Продолжительность : 1 ч. 48 м.
Вид битрейта : Постоянный
Битрейт : 192 Кбит/сек
Каналы : 2 канала
ChannelLayout : L R
Частота : 48,0 КГц
Частота кадров : 31,250 кадров/сек (1536 SPF)
Битовая глубина : 16 бит
Метод сжатия : С потерями
Размер потока : 148 Мбайт (3%)
Заголовок : DUB BГТРК
Язык : Russian
ServiceKind/String : Complete Main
Default : Да
Forced : Нет

Аудио #2
Идентификатор : 3
Формат : AC-3
Формат/Информация : Audio Coding 3
Коммерческое название : Dolby Digital
Идентификатор кодека : A_AC3
Продолжительность : 1 ч. 48 м.
Вид битрейта : Постоянный
Битрейт : 192 Кбит/сек
Каналы : 2 канала
ChannelLayout : L R
Частота : 48,0 КГц
Частота кадров : 31,250 кадров/сек (1536 SPF)
Битовая глубина : 16 бит
Метод сжатия : С потерями
Размер потока : 148 Мбайт (3%)
Заголовок : MVO CTC
Язык : Russian
ServiceKind/String : Complete Main
Default : Нет
Forced : Нет

Аудио #3
Идентификатор : 4
Формат : AC-3
Формат/Информация : Audio Coding 3
Коммерческое название : Dolby Digital
Идентификатор кодека : A_AC3
Продолжительность : 1 ч. 48 м.
Вид битрейта : Постоянный
Битрейт : 192 Кбит/сек
Каналы : 2 канала
ChannelLayout : L R
Частота : 48,0 КГц
Частота кадров : 31,250 кадров/сек (1536 SPF)
Битовая глубина : 16 бит
Метод сжатия : С потерями
Размер потока : 148 Мбайт (3%)
Заголовок : MVO OPT
Язык : Russian
ServiceKind/String : Complete Main
Default : Нет
Forced : Нет

Аудио #4
Идентификатор : 5
Формат : AC-3
Формат/Информация : Audio Coding 3
Коммерческое название : Dolby Digital
Идентификатор кодека : A_AC3
Продолжительность : 1 ч. 48 м.
Вид битрейта : Постоянный
Битрейт : 192 Кбит/сек
Каналы : 2 канала
ChannelLayout : L R
Частота : 48,0 КГц
Частота кадров : 31,250 кадров/сек (1536 SPF)
Битовая глубина : 16 бит
Метод сжатия : С потерями
Размер потока : 148 Мбайт (3%)
Заголовок : Андрей Гаврилов
Язык : Russian
ServiceKind/String : Complete Main
Default : Нет
Forced : Нет

Аудио #5
Идентификатор : 6
Формат : AC-3
Формат/Информация : Audio Coding 3
Коммерческое название : Dolby Digital
Идентификатор кодека : A_AC3
Продолжительность : 1 ч. 48 м.
Вид битрейта : Постоянный
Битрейт : 192 Кбит/сек
Каналы : 2 канала
ChannelLayout : L R
Частота : 48,0 КГц
Частота кадров : 31,250 кадров/сек (1536 SPF)
Битовая глубина : 16 бит
Метод сжатия : С потерями
Размер потока : 148 Мбайт (3%)
Заголовок : Виктор Махонько
Язык : Russian
ServiceKind/String : Complete Main
Default : Нет
Forced : Нет

Аудио #6
Идентификатор : 7
Формат : AC-3
Формат/Информация : Audio Coding 3
Коммерческое название : Dolby Digital
Идентификатор кодека : A_AC3
Продолжительность : 1 ч. 48 м.
Вид битрейта : Постоянный
Битрейт : 192 Кбит/сек
Каналы : 2 канала
ChannelLayout : L R
Частота : 48,0 КГц
Частота кадров : 31,250 кадров/сек (1536 SPF)
Битовая глубина : 16 бит
Метод сжатия : С потерями
Размер потока : 148 Мбайт (3%)
Заголовок : Алексей Михалёв
Язык : Russian
ServiceKind/String : Complete Main
Default : Нет
Forced : Нет

Аудио #7
Идентификатор : 8
Формат : AC-3
Формат/Информация : Audio Coding 3
Коммерческое название : Dolby Digital
Идентификатор кодека : A_AC3
Продолжительность : 1 ч. 48 м.
Вид битрейта : Постоянный
Битрейт : 192 Кбит/сек
Каналы : 2 канала
ChannelLayout : L R
Частота : 48,0 КГц
Частота кадров : 31,250 кадров/сек (1536 SPF)
Битовая глубина : 16 бит
Метод сжатия : С потерями
Размер потока : 148 Мбайт (3%)
Заголовок : original
Язык : English
ServiceKind/String : Complete Main
Default : Нет
Forced : Нет

Текст
Идентификатор : 9
Формат : UTF-8
Идентификатор кодека : S_TEXT/UTF8
Идентификатор кодека/Информация : UTF-8 Plain Text
Продолжительность : 1 ч. 47 м.
Битрейт : 82 бит/сек
ElementCount : 2346
Размер потока : 65,3 Кбайт (0%)
Заголовок : английские
Язык : English
Default : Нет
Forced : Нет

Меню
00:00:00.000 : :Chapter 1
00:12:01.635 : :Chapter 2
00:23:09.179 : :Chapter 3
00:34:41.036 : :Chapter 4
00:48:34.577 : :Chapter 5
01:04:41.001 : :Chapter 6
01:19:41.984 : :Chapter 7
01:33:42.698 : :Chapter 8
pb.wtf



Скачать Красивая жизнь через торрент https://a.radikal.ru/a30/1905/7c/112c47bcbfe2.jpg Скачать фильм Красивая жизнь через торрент бесплантно в хорошем качестве О фильме: Что может означать для преуспевающего бизнесмена потеря органайзера со всеми кредитными карточками, наличными деньгами и ключами ... 9.8 10 5
Торрент: Зарегистрирован [2019-05-15 05:28] · скачан: 33 раз
Статус: √ проверено
Размер: 5.62 GB
Как cкачать? Как скачать Красивая жизнь через торрент | qTorrent

% Раздел Тема Автор DL S | L
Фильмы [HD 720p, 1080p] (Хороший звук DUB, MVO) [ 14.56 GB ] Красивая жизнь / Taking Care of Business [1990 BDRip 1080p by msltel] DUB 2 x MVO 3 x AVO msltel Скачать
4 | 0


>> Регистрируемся здесь <<






Отзывы и комментарии о схеме читаем и пишем здесь: ---> Отзывы и комментарии о схеме

Новые благодарочки в телеграм довольных пользователей:
скриншот   скриншот   скриншот   скриншот   скриншот
    Дорогой пользователь! Огромная просьба, поблагодарите релизера, оцените раздачу и оставьте свои комментарий, если Вы скачали Красивая жизнь через торрент бесплатно! Внесите свою лепту в развитие PiratBit!
    Комментировать посты могут только пользователи прошедшие не сложную регистрацию
    Показать сообщения:    

    Красивая жизнь через торрент
    Скачать бесплатно Красивая жизнь
    Красивая жизнь скачать торрент
    Красивая жизнь смотреть онлайн
    Cкачать фильм Красивая жизнь бесплатно
    Красивая жизнь скачать торрент в хорошем качестве
    Красивая жизнь смотреть онлайн бесплатно в хорошем качестве


    Вы не можете начинать темы
    Вы не можете отвечать на сообщения
    Вы не можете редактировать свои сообщения
    Вы не можете удалять свои сообщения
    Вы не можете голосовать в опросах
    Вы не можете прикреплять файлы к сообщениям
    Вы можете скачивать файлы