2 сезон

iTunes

MVO

1

2 сезон

iTunes

iTunes

1 сезон

RePack

30

Новинка

ВАЖНО

ИГРА 18+

pack

RePack

MK11
pack

Легкие деньги

RePack

jed

RePack

fifa19

RePack

RDR2

RePack

NEED FOR SPEED™ PAYBACK

4 сезон

9 сезон

Бесстыжие 9 сезон

Все сериалы

все сериалы на PB.wtf

RePack

FAR CRY 5

Anonymous, добрый вечер, мы не успеваем собрать деньги на оплату серверов за декабрь и январь, помогите нам пожалуйста в это трудное время. В качестве благодарности мы отключим Вам всю рекламу на сайте (укажите свой ник в строку Ваше имя)!

×
  
Magnet ссылка

Мег: Монстр глубины 3Д / The Meg 3D (Джон Тёртлтауб) [2018, ужасы, фантастика, боевик, триллер, BDRip 1080p] [Half OverUnder / Вертикальная анаморфная стереопара] DUB (rus, ukr) [Лицензия] pb.wtf

Мег: Монстр глубины 3Д через торрент pb.wtf

Размер: 11.28 GB | Добавлен: 2 года 2 мес. назад | Торрент скачан:325 раз
Скачать  

16-11-2018 00:08 Мег: Монстр глубины 3Д Скачать торрент  

Мег: Монстр глубины
The Meg 3D
«Кушать подано!»
Год выпуска: 2018
Страна: Китай, США
Жанр: ужасы, фантастика, боевик, триллер
Продолжительность: 01:53:11
Перевод: Дублированный | Лицензия
Субтитры (SRT):

Вшитые (softsub):
#1 - Русские Форсированные [v. Ash61] (включены по умолчанию)
#2 - Русские Полные
#3 - Украинские Форсированные [v. Ash61]
#4 - English Full
#5 - English SDH

Внешние (UTF-8):
#1 - Русские Форсированные [v. Ash61] (включены по умолчанию)
#2 - Русские Полные
#3 - Украинские Форсированные [v. Ash61]

Режиссер: Джон Тёртлтауб

rating

В ролях:

Джейсон Стэйтем (Jonas Taylor), Ли Бинбин (Suyin), Рэйн Уилсон (Morris), Клифф Кёртис (Mac), Уинстон Чао (Zhang), Шуя Софиа Цай (Meiying), Руби Роуз (Jaxx), Пейдж Кеннеди (DJ), Роберт Тейлор (Heller), Оулавюр Дарри Оулафссон (The Wall), Джессика МакНэми (Lori), Маси Ока (Toshi)
Описание:

Глубоководный батискаф, осуществляющий наблюдение в рамках международной программы по изучению подводной жизни, был атакован огромным существом, которое все считали давно вымершим. Неисправный аппарат теперь лежит на дне глубочайшей впадины Тихого океана... с оказавшимся в ловушке экипажем. Их время на исходе. Китайская океанограф-новатор Суинь вопреки желанию своей дочери зовет спасателя-подводника Джонаса Тейлора, чтобы тот помог спасти команду и океан от невиданной угрозы - доисторической 23-метровой акулы, мегалодона. Никто и подумать не мог, что много лет назад Тейлор уже сталкивался с этим чудовищным созданием.

Качество: BDRip 1080p
Формат: MKV

Видео: AVC / 1920х1080p / 23,976 fps / 13.0 Mbps
Аудио#1: Русский / AC3 / 48 KHz / 5.1 ch / 448 Kbps (Дубляж - BD 3D Eur) |
Аудио#2: Украинский / AC3 / 48 KHz / 2 ch / 192 Kbps (Дубляж - iTunes) |
Аудио#3: Английский / AC3 / 48 KHz / 5.1 ch / 640 Kbps (Original - BD 3D Eur) |


Формат 3D: Half OverUnder / Вертикальная анаморфная стереопара
Порядок ракурсов: левый ракурс первый
скриншот  скриншот  скриншот  скриншот  скриншот  

скриншот  скриншот  скриншот  скриншот  скриншот  

General
Unique ID : 183662366192219335995155672704112227413 (0x8A2C15C730DA78A8A5FF53DC0DE17455)
Complete name : D:TheMeg(2018)3D-halfOU(Ash61)TheMeg(2018)3D-halfOU(Ash61).mkv
Format : Matroska
Format version : Version 2
File size : 11.3 GiB
Duration : 1h 53mn
Overall bit rate : 14.3 Mbps
Movie name : Мег: Монстр глубины / The Meg (2018) in 3D
Encoded date : UTC 2018-11-15 21:14:57
Writing application : mkvmerge v5.8.0 ('No Sleep / Pillow') built on Sep 2 2012 15:37:04
Writing library : libebml v1.2.3 + libmatroska v1.3.0

Video
ID : 1
Format : AVC
Format/Info : Advanced Video Codec
Format profile : High@L4.1
Format settings, CABAC : Yes
Format settings, ReFrames : 4 frames
Codec ID : V_MPEG4/ISO/AVC
Duration : 1h 53mn
Bit rate : 13.0 Mbps
Width : 1 920 pixels
Height : 1 080 pixels
Display aspect ratio : 16:9
Frame rate mode : Constant
Frame rate : 23.976 (24000/1001) fps
Color space : YUV
Chroma subsampling : 4:2:0
Bit depth : 8 bits
Scan type : Progressive
Bits/(Pixel*Frame) : 0.261
Stream size : 10.0 GiB (89%)
Title : BDRip by Ash61
Writing library : x264 core 146 r2538 121396c
Encoding settings : cabac=1 / ref=4 / deblock=1:-3:-3 / analyse=0x3:0x113 / me=umh / subme=10 / psy=1 / psy_rd=1.00:0.00 / mixed_ref=1 / me_range=32 / chroma_me=1 / trellis=2 / 8x8dct=1 / cqm=0 / deadzone=21,11 / fast_pskip=0 / chroma_qp_offset=-2 / threads=12 / lookahead_threads=3 / sliced_threads=0 / nr=0 / decimate=0 / interlaced=0 / bluray_compat=0 / constrained_intra=0 / bframes=10 / b_pyramid=2 / b_adapt=2 / b_bias=0 / direct=3 / weightb=1 / open_gop=0 / weightp=2 / keyint=250 / keyint_min=23 / scenecut=40 / intra_refresh=0 / rc_lookahead=60 / rc=2pass / mbtree=0 / bitrate=13000 / ratetol=1.0 / qcomp=0.70 / qpmin=0 / qpmax=69 / qpstep=4 / cplxblur=20.0 / qblur=0.5 / vbv_maxrate=40000 / vbv_bufsize=30000 / nal_hrd=none / filler=0 / frame-packing=4 / ip_ratio=1.40 / pb_ratio=1.30 / aq=1:0.70
Language : English
Default : Yes
Forced : No

Audio #1
ID : 2
Format : AC-3
Format/Info : Audio Coding 3
Mode extension : CM (complete main)
Format settings, Endianness : Big
Codec ID : A_AC3
Duration : 1h 53mn
Bit rate mode : Constant
Bit rate : 448 Kbps
Channel(s) : 6 channels
Channel positions : Front: L C R, Side: L R, LFE
Sampling rate : 48.0 KHz
Frame rate : 31.250 fps (1536 spf)
Compression mode : Lossy
Stream size : 363 MiB (3%)
Title : Дубляж (BD 3D Eur)
Language : Russian
Default : Yes
Forced : No

Audio #2
ID : 3
Format : AC-3
Format/Info : Audio Coding 3
Mode extension : CM (complete main)
Format settings, Endianness : Big
Codec ID : A_AC3
Duration : 1h 53mn
Bit rate mode : Constant
Bit rate : 192 Kbps
Channel(s) : 2 channels
Channel positions : Front: L R
Sampling rate : 48.0 KHz
Frame rate : 31.250 fps (1536 spf)
Compression mode : Lossy
Stream size : 155 MiB (1%)
Title : Дубляж (iTunes)
Language : Ukrainian
Default : No
Forced : No

Audio #3
ID : 4
Format : AC-3
Format/Info : Audio Coding 3
Mode extension : CM (complete main)
Format settings, Endianness : Big
Codec ID : A_AC3
Duration : 1h 53mn
Bit rate mode : Constant
Bit rate : 640 Kbps
Channel(s) : 6 channels
Channel positions : Front: L C R, Side: L R, LFE
Sampling rate : 48.0 KHz
Frame rate : 31.250 fps (1536 spf)
Compression mode : Lossy
Stream size : 518 MiB (4%)
Title : Original (BD 3D Eur)
Language : English
Default : No
Forced : No

Text #1
ID : 5
Format : UTF-8
Codec ID : S_TEXT/UTF8
Codec ID/Info : UTF-8 Plain Text
Title : Форсированные [v. Ash61]
Language : Russian
Default : Yes
Forced : No

Text #2
ID : 6
Format : UTF-8
Codec ID : S_TEXT/UTF8
Codec ID/Info : UTF-8 Plain Text
Title : Полные
Language : Russian
Default : No
Forced : No

Text #3
ID : 7
Format : UTF-8
Codec ID : S_TEXT/UTF8
Codec ID/Info : UTF-8 Plain Text
Title : Форсированные [v. Ash61]
Language : Ukrainian
Default : No
Forced : No

Text #4
ID : 8
Format : UTF-8
Codec ID : S_TEXT/UTF8
Codec ID/Info : UTF-8 Plain Text
Title : Full
Language : English
Default : No
Forced : No

Text #5
ID : 9
Format : UTF-8
Codec ID : S_TEXT/UTF8
Codec ID/Info : UTF-8 Plain Text
Title : SDH
Language : English
Default : No
Forced : No

Menu
00:00:00.000 : :1
00:08:48.695 : :2
00:18:14.260 : :3
00:27:09.878 : :4
00:39:30.535 : :5
00:49:10.990 : :6
00:58:01.478 : :7
01:08:22.890 : :8
01:19:45.948 : :9
01:30:04.399 : :10
01:42:40.988 : :11

pb.wtf



Скачать Мег: Монстр глубины 3Д через торрент https://d.radikal.ru/d37/1811/01/6dd2d4d1773b.png Скачать фильм Мег: Монстр глубины 3Д через торрент бесплантно в хорошем качестве Описание:Глубоководный батискаф, осуществляющий наблюдение в рамках международной программы по изучению подводной жизни, был атакован ... 10 10 5
Торрент: Зарегистрирован [2018-11-16 00:08] · скачан: 325 раз
Статус: √ проверено
Размер: 11.28 GB
Как cкачать? Как скачать Мег: Монстр глубины 3Д через торрент | UTorrent

% Раздел Тема Автор DL S | L
3D Фильмы [ 15.41 GB ] Мег: Монстр глубины в 3Д / The Meg 3D [2018 BDRip 1080p] OverUnder / Вертикальная стереопара serega768 Скачать
2 | 0

28-11-2019 20:33  

Отключить всю рекламу на сайте

    Дорогой пользователь! Огромная просьба, поблагодарите релизера, оцените раздачу и оставьте свои комментарий, если Вы скачали Мег: Монстр глубины 3Д через торрент бесплатно! Внесите свою лепту в развитие PiratBit!
    Комментировать посты могут только пользователи прошедшие не сложную регистрацию
    Показать сообщения:    

    Мег: Монстр глубины 3Д через торрент
    Скачать бесплатно Мег: Монстр глубины 3Д
    Мег: Монстр глубины 3Д скачать торрент
    Мег: Монстр глубины 3Д смотреть онлайн
    Cкачать фильм Мег: Монстр глубины 3Д бесплатно
    Мег: Монстр глубины 3Д скачать торрент в хорошем качестве
    Мег: Монстр глубины 3Д смотреть онлайн бесплатно в хорошем качестве


    Вы не можете начинать темы
    Вы не можете отвечать на сообщения
    Вы не можете редактировать свои сообщения
    Вы не можете удалять свои сообщения
    Вы не можете голосовать в опросах
    Вы не можете прикреплять файлы к сообщениям
    Вы можете скачивать файлы