Ссылка на приватное зеркало нашего сайта всего за 1$. Внимание количество ограничено!!!

2 сезон

iTunes

1 сезон

1

2 сезон

2 сезон

iTunes

1 сезон

RePack

30

Ultimate

ВАЖНО

ИГРА 18+

pack

RePack

MK11
pack

Забери бонус

RePack

jed

!!Акция!!

Alien_Rage

RePack

fifa19

RePack

Assassins Creed: Odyssey

RePack

NEED FOR SPEED™ PAYBACK

4 сезон

9 сезон

Бесстыжие 9 сезон

Все сериалы

все сериалы на PB.wtf

RePack

FAR CRY 5
  

Лучшие в Лос-Анджелесе / L.A.'s Finest / Сезон: 1 / Серии: 1-13 из 13 (Дженис Кук-Леонард, Антон Кроппер, Антонио Негрет) [2019, боевик, комедия, криминал, WEBRip 720p] [DVO] (Gears Media) pb.wtf

Лучшие в Лос-Анджелесе через торрент pb.wtf

Размер: 13.5 GB | Добавлен: 1 год 5 мес. назад | Торрент скачан:33 раза
Скачать  

15-05-2019 10:25 Лучшие в Лос-Анджелесе Скачать торрент  

Лучшие в Лос-Анджелесе / L.A.'s Finest Год выпуска: 2019
Страна: США
Жанр: боевик, комедия, криминал
Продолжительность: 00:45:00

Перевод: Профессиональный (двухголосый закадровый) [Gears Media]

Режиссёр: Дженис Кук-Леонард, Антон Кроппер, Антонио Негрет

В ролях: Джессика Альба , Гэбриэл Юнион , Лас Алонсо, Софи Рейнольдс, Дэвид Фумеро, Джейк Бьюзи, Джордан Родригез, Сиара Уилсон, Кертис Харрис мл., Ханна Бэйрфут

Описание: По сюжету Сид Бернетт и Нэнси Маккена, две полицейские из Лос-Анджелеса с непростым прошлым и разными характерами, пытаются примириться друг с другом в качестве напарниц и вместе справиться с самыми опасными преступниками города.

rating

Сэмпл: http://multi-up.com/1232131

Качество: WEBRip 720p
Формат: MKV
Видео: X264, 1280x720 at 23.970 fps, ~4000 kbps avg
Аудио1: Russian, AC3, 48 kHz, 2 ch, 384 kbps
Аудио2: English, AC3, 48 kHz, 6 ch, 384 kbps
Субтитры: нет
Format : Matroska
Format version : Version 4
File size : 1.53 GiB
Duration : 46 min 45 s
Overall bit rate : 4 672 kb/s
Encoded date : UTC 2019-05-14 23:55:30
Writing application : mkvmerge v32.0.0 ('Astral Progressions') 64-bit
Writing library : libebml v1.3.7 + libmatroska v1.5.0

Video
ID : 1
Format : AVC
Format/Info : Advanced Video Codec
Format profile : High@L3.1
Format settings : CABAC / 4 Ref Frames
Format settings, CABAC : Yes
Format settings, ReFrames : 4 frames
Codec ID : V_MPEG4/ISO/AVC
Duration : 46 min 45 s
Bit rate : 4 000 kb/s
Width : 1 280 pixels
Height : 720 pixels
Display aspect ratio : 16:9
Frame rate mode : Constant
Frame rate : 29.970 (29970/1000) FPS
Color space : YUV
Chroma subsampling : 4:2:0
Bit depth : 8 bits
Scan type : Progressive
Bits/(Pixel*Frame) : 0.145
Stream size : 1.27 GiB (84%)
Writing library : x264 core 148
Encoding settings : cabac=1 / ref=3 / deblock=1:0:0 / analyse=0x3:0x113 / me=hex / subme=7 / psy=1 / psy_rd=1.00:0.00 / mixed_ref=1 / me_range=16 / chroma_me=1 / trellis=1 / 8x8dct=1 / cqm=0 / deadzone=21,11 / fast_pskip=1 / chroma_qp_offset=-2 / threads=22 / lookahead_threads=3 / sliced_threads=0 / nr=0 / decimate=1 / interlaced=0 / bluray_compat=0 / constrained_intra=0 / bframes=3 / b_pyramid=2 / b_adapt=1 / b_bias=0 / direct=1 / weightb=1 / open_gop=0 / weightp=2 / keyint=250 / keyint_min=25 / scenecut=40 / intra_refresh=0 / rc_lookahead=40 / rc=abr / mbtree=1 / bitrate=4000 / ratetol=1.0 / qcomp=0.60 / qpmin=0 / qpmax=69 / qpstep=4 / ip_ratio=1.40 / aq=1:1.00
Default : Yes
Forced : No

Audio #1
ID : 2
Format : AC-3
Format/Info : Audio Coding 3
Commercial name : Dolby Digital
Codec ID : A_AC3
Duration : 46 min 45 s
Bit rate mode : Constant
Bit rate : 384 kb/s
Channel(s) : 2 channels
Channel layout : L R
Sampling rate : 48.0 kHz
Frame rate : 31.250 FPS (1536 SPF)
Bit depth : 16 bits
Compression mode : Lossy
Stream size : 128 MiB (8%)
Title : Gears Media
Language : Russian
Service kind : Complete Main
Default : Yes
Forced : Yes

Audio #2
ID : 3
Format : AC-3
Format/Info : Audio Coding 3
Commercial name : Dolby Digital
Codec ID : A_AC3
Duration : 46 min 45 s
Bit rate mode : Constant
Bit rate : 384 kb/s
Channel(s) : 6 channels
Channel layout : L R C LFE Ls Rs
Sampling rate : 48.0 kHz
Frame rate : 31.250 FPS (1536 SPF)
Bit depth : 16 bits
Compression mode : Lossy
Stream size : 128 MiB (8%)
Language : English
Service kind : Complete Main
Default : No
Forced : No
скриншот  скриншот  скриншот  
Внимание! Раздача ведётся путём добавления новых серий; при каждом добавлении создаётся новый торрент. Чтобы начать докачку новой серии, пользователям необходимо сделать следующее:
(1) остановить скачивание,
(2) удалить старый торрент у себя из клиента (старые серии удалять не надо),
(3) скачать новый торрент и запустить его у себя в клиенте вместо старого, при этом указать клиенту путь в старую папку куда и должно происходить скачивание новых серий.

Ваш клиент при этом должен произвести хеширование (проверку) старой папки (если не производит сам - помогите ему сделать это), и будет докачивать только те серии которых у вас ещё нет. Старые серии при этом не удаляются, а продолжают раздаваться!

Eсли вы уже удалили старые серии, то предотвратить повторную закачку старых серий можно, отжав галочку в соответствующих местах при запуске нового торрента. По возможности, желательно не удалять старые серии как можно дольше чтобы релизёр не столько продолжал раздавать старые серии, а смог сконцентрироваться на новых.
pb.wtf



Скачать Лучшие в Лос-Анджелесе через торрент https://i109.fastpic.ru/big/2019/0515/1a/41db4df9de9a02ce736d5621367fe61a.jpg Скачать фильм Лучшие в Лос-Анджелесе через торрент бесплантно в хорошем качестве Описание: По сюжету Сид Бернетт и Нэнси Маккена, две полицейские из Лос-Анджелеса с непростым прошлым и разными характерами, пытаются ... 4 10 2
Торрент: Зарегистрирован [2019-06-19 17:43] · скачан: 33 раз
Статус: √ проверено
Размер: 13.5 GB
Как cкачать? Как скачать Лучшие в Лос-Анджелесе через торрент | qTorrent



Последний раз редактировалось: killermax2013 (2019-06-19 17:43), всего редактировалось 5 раз(а)

28-11-2019 20:33  

Отключить всю рекламу на сайте

15-05-2019 10:38 Лучшие в Лос-Анджелесе Скачать торрент  



pb.wtf



17-05-2019 09:49 Лучшие в Лос-Анджелесе Скачать торрент  

Сид , брат Маркус , это что типа возможен залет в сериал Мартина Лоуренса ?pb.wtf



    Дорогой пользователь! Огромная просьба, поблагодарите релизера, оцените раздачу и оставьте свои комментарий, если Вы скачали Лучшие в Лос-Анджелесе через торрент бесплатно! Внесите свою лепту в развитие PiratBit!
    Комментировать посты могут только пользователи прошедшие не сложную регистрацию
    Показать сообщения:    

    Лучшие в Лос-Анджелесе через торрент
    Скачать бесплатно Лучшие в Лос-Анджелесе
    Лучшие в Лос-Анджелесе скачать торрент
    Лучшие в Лос-Анджелесе смотреть онлайн
    Cкачать фильм Лучшие в Лос-Анджелесе бесплатно
    Лучшие в Лос-Анджелесе скачать торрент в хорошем качестве
    Лучшие в Лос-Анджелесе смотреть онлайн бесплатно в хорошем качестве


    Вы не можете начинать темы
    Вы не можете отвечать на сообщения
    Вы не можете редактировать свои сообщения
    Вы не можете удалять свои сообщения
    Вы не можете голосовать в опросах
    Вы не можете прикреплять файлы к сообщениям
    Вы можете скачивать файлы