Наша группа ВК в очередной раз забанена мы уходим в Телеграм, присоединяйтесь!!!

Лицензия

30

iTunes

Как приручить дракона 3

iTunes

1

1 сезон

Чернобыль

iTunes

Снегоуборщик

iTunes

Закатать в асфальт

8 сезон

Игра престолов

iTunes

Ральф против интернета Хит недели

ИГРА 18+

pack

ВАЖНО

!!Акция!!

Alien_RageХит недели

RePack

Resident Evil 21
pack

RePack

Metro:Exodus

!!Акция!!

Alien_Rage

RePack

fifa19

RePack

Assassins Creed: Odyssey

RePack

NEED FOR SPEED™ PAYBACK

3 сезон

9 сезон

Бесстыжие 9 сезон

Все сериалы

все сериалы на PB.wtf

RePack

FAR CRY 5
Ребята, катастрофически не хватает 2730р. для оплаты серверов за АПРЕЛЬ (всвязи с блокировками трафик упал в 3 раза), 1-2р., выручайте.
  

Короткие истории (Михаил Григорьев) [1963, СССР, мюзикл, комедия, DVDRip от AVP Studio] pb.wtf

Короткие истории через торрент pb.wtf

Раздают: 11 [ 0 KB/s ] Качают: 1 [ 0 KB/s ]
Размер: 1.46 GB | Добавлен: 6 д. назад | Торрент скачан:6 раз
Скачать  

15-05-2019 16:30 Короткие истории Скачать торрент  

Короткие истории
Страна: СССР
Производство: ОПФ (Останкино), ЦТ

Жанр: мюзикл, комедия
Год выпуска: 1963
Продолжительность: 02:06:01

Перевод: Не требуется
Cубтитры: нет
Оригинальная аудиодорожка: русский

Режиссер: Михаил Григорьев

В ролях:
Лилия Трунина, Людмила Графова, Людмила Васильева, Ирина Седлярова, Светлана Захватошина, Инна Харламова, Елена Хуцешвили, Леонид Швачкин, Георгий Вовк, Юрий Гердов, Валентин Смирнов, Валентина Токарская, Екатерина Деревщикова, Георгий Менглет, Владимир Лепко, Юрий Соковнин, Георгий Тусузов, Клеон Протасов, Вячеслав Царёв, Юрий Медведев, Юрий Фомичёв, Ольга Аросева, Бронислава Тронова, Виктор Байков, Вера Орлова, Алексей Варламов, Михаил Пуговкин, Евгений Леонов, Борис Чирков, Владимир Корецкий, Георгий Вицин, Людмила Геника-Чиркова, Владимир Раутбарт, Леонид Пирогов, Всеволод Ларионов, Александр Шворин, Павел Винник, Борис Брунов, Мария Миронова, Александр Менакер, Светлана Харитонова, Ростислав Плятт, Анатолий Папанов, Марина Куракова, Маргарита Жигунова, Роза Макагонова, Владимир Васильев (II), Екатерина Райкина, Нина Архипова, Реля Башич, Юрий Волынцев...
Об актёрах подробней

Описание:
Фильм состоит из экранизации юмористических миниатюр писателей зарубежных стран: «Улыбнись, товарищ!», «Интересно», «Вопрос о лопнувшей трубе», «Я стучу на машинке», «И так бывает», «Осторожный человек», «Времена года», «Семейный вечер», «Шутки-малютки», «Условия развода», «Телефон», «Калиновский», «Сестра Моника», «Улыбка художника», «Случай в самолете», «Мошенник», «Тайна комнаты № 216», «Порядок прежде всего», «В суде», «Слоны из мух», «Умелец», «Гостеприимство», «Поучительный случай», «Легенда о блуждающих зеркалах», «Маэстро», «Следите за моралью» и др.

Источник: DVD5 R5
Качество видео: DVDRip
Формат видео: AVI

Видео: 688х512 (4:3), 25,000 fps, XviD ~ 1456 kbps avg, 0.165 bit/pixel
Аудио: 48 kHz, Dolby Digital AC3 2.0, 192 kbps

Раздача от:
Общее
Полное имя : Korotkie.istorii.1963.DVDRip_[New-team]_by_AVP_Studio.avi
Формат : AVI
Формат/Информация : Audio Video Interleave
Размер файла : 1,46 Гбайт
Продолжительность : 2 ч. 6 м.
Общий поток : 1658 Кбит/сек
Программа кодирования : VirtualDubMod 1.5.10.3 | www.virtualdub-fr.org || (build 2550/release)
Библиотека кодирования : VirtualDubMod build 2550/release

Видео
Идентификатор : 0
Формат : MPEG-4 Visual
Профиль формата : Advanced Simple@L5
Настройки формата : BVOP1 / Custom Matrix
Параметр BVOP формата : 1
Параметр QPel формата : Нет
Параметр GMC формата : Без точки перехода
Параметр матрицы формата : Выборочная
Идентификатор кодека : XVID
Идентификатор кодека/Подсказка : XviD
Продолжительность : 2 ч. 6 м.
Битрейт : 1456 Кбит/сек
Ширина : 688 пикселей
Высота : 512 пикселей
Соотношение сторон : 4:3
Частота кадров : 25,000 кадров/сек
Цветовое пространство : YUV
Субдискретизация насыщенности : 4:2:0
Битовая глубина : 8 бит
Тип развёртки : Прогрессивная
Метод сжатия : С потерями
Бит/(Пиксели*Кадры) : 0.165
Размер потока : 1,28 Гбайт (88%)
Библиотека кодирования : XviD 73

Аудио
Идентификатор : 1
Формат : AC-3
Формат/Информация : Audio Coding 3
Коммерческое название : Dolby Digital
Идентификатор кодека : 2000
Продолжительность : 2 ч. 6 м.
Вид битрейта : Постоянный
Битрейт : 192 Кбит/сек
Каналы : 2 канала
ChannelLayout : L R
Частота : 48,0 КГц
Частота кадров : 31,250 кадров/сек (1536 SPF)
Битовая глубина : 16 бит
Метод сжатия : С потерями
Размер потока : 173 Мбайт (12%)
Выравнивание : Разделение по промежуткам
Продолжительность промежутка : 40 мс. (1,00 видеокадр)
Время предзагрузки промежутка : 500 мс.
pb.wtf



Скачать Короткие истории через торрент http://picplus.ru/img/1905/15/1c09794e.png Скачать фильм Короткие истории через торрент бесплантно в хорошем качестве Описание:Фильм состоит из экранизации юмористических миниатюр писателей зарубежных стран: «Улыбнись, товарищ!», «Интересно», «Вопрос о ... 10 10 1
Торрент: Зарегистрирован [2019-05-15 16:30] · скачан: 6 раз
Статус: √ проверено
Размер: 1.46 GB
Как cкачать? Как скачать Короткие истории через торрент | qTorrent

% Раздел Тема Автор DL S | L
Кино СССР [ 1.46 GB ] Короткие истории [1963 СССР мюзикл DVDRip-AVC от AVP Studio] AVP Studio Скачать
39 | 0
Разное [ 320 MB ] Акунин Борис - Жизнь замечательных людей и зверей. Короткие истории о всяком разном [Клюквин Александр 2017 96 kbps MP3] bober100 Скачать
1 | 0


>> Регистрируемся здесь <<






Отзывы и комментарии о схеме читаем и пишем здесь: ---> Отзывы и комментарии о схеме

Новые благодарочки в телеграм довольных пользователей:
скриншот   скриншот   скриншот   скриншот   скриншот
    Дорогой пользователь! Огромная просьба, поблагодарите релизера, оцените раздачу и оставьте свои комментарий, если Вы скачали Короткие истории через торрент бесплатно! Внесите свою лепту в развитие PiratBit!
    Комментировать посты могут только пользователи прошедшие не сложную регистрацию
    Показать сообщения:    

    Короткие истории через торрент
    Скачать бесплатно Короткие истории
    Короткие истории скачать торрент
    Короткие истории смотреть онлайн
    Cкачать фильм Короткие истории бесплатно
    Короткие истории скачать торрент в хорошем качестве
    Короткие истории смотреть онлайн бесплатно в хорошем качестве


    Вы не можете начинать темы
    Вы не можете отвечать на сообщения
    Вы не можете редактировать свои сообщения
    Вы не можете удалять свои сообщения
    Вы не можете голосовать в опросах
    Вы не можете прикреплять файлы к сообщениям
    Вы можете скачивать файлы