Наша группа ВК в очередной раз забанена мы уходим в Телеграм, присоединяйтесь!!!

Лицензия

30

iTunes

мы

iTunes

1

1 сезон

Чернобыль

iTunes

1+1

iTunes

Закатать в асфальт

8 сезон

Игра престолов

1 сезон

Ральф против интернета

ИГРА 18+

pack

ВАЖНО

!!Акция!!

Alien_RageХит недели

RePack

Resident Evil 21
pack

RePack

Metro:Exodus

!!Акция!!

Alien_Rage

RePack

fifa19

RePack

Assassins Creed: Odyssey

RePack

NEED FOR SPEED™ PAYBACK

3 сезон

9 сезон

Бесстыжие 9 сезон

Все сериалы

все сериалы на PB.wtf

RePack

FAR CRY 5
Ребята, катастрофически не хватает 2730р. для оплаты серверов за АПРЕЛЬ (всвязи с блокировками трафик упал в 3 раза), 1-2р., выручайте.
  

The Tryst List / Сезон: 1 / Серии: 1-8 из 8 (Playboy TV) [2017 г., Classic sex, SiteRip 1080p, Оригинал] pb.wtf

The Tryst List через торрент pb.wtf

Раздают: 5 [ 0 KB/s ]
Размер: 8.9 GB | Добавлен: 8 д. назад | Торрент скачан:158 раз
Скачать  

15-05-2019 16:43 The Tryst List Скачать торрент  

The Tryst ListГод выпуска: 2017
Страна: USA
Жанр: Classic sex
Продолжительность: 8 x ~ 00:26:00
Перевод: отсутствует (оригинал)
Субтитры: отсутствуют

Режиссер: Playboy TV
В ролях: Vanessa Decker, Ricky, Gina Devine, Thomas Lee, Lady Bug, Nancy A, Martin

Описание: It's Playboy TV's sexual bucket list for loving couples. From erotic dances and steamy workouts to a naughty approach to arts and crafts, loving couples reveal how to keep the romance alive and how to make the sex hotter than ever.
Это список сексуальных ведер Playboy TV для любящих пар. От эротических танцев и парных тренировок до озорного подхода к искусству и ремеслам, любящие пары показывают, как сохранить романтику и как сделать секс горячее, чем когда-либо.

Качество: SiteRip 1080p
Формат: MP4
Видео кодек: AVC
Аудио кодек: AAC
Видео: 1920х1080 (16:9), 30 fps ~ 5930 Kbps
Аудио: 48 KHz, 2 ch ~ 192 Kb/s
скриншот   скриншот   скриншот   скриншот   скриншот  

Общее
Полное имя : Q:\TorF\playboy.tv - the Tryst list - Season 1, full show - 1080p\Ep.1.mp4
Формат : MPEG-4
Профиль формата : Base Media / Version 2
Идентификатор кодека : mp42
Размер файла : 1,11 Гбайт
Продолжительность : 26 м.
Режим общего битрейта : Переменный
Общий поток : 6121 Кбит/сек
Дата кодирования : UTC 2017-07-03 23:15:31
Дата пометки : UTC 2017-07-03 23:16:35
©TIM : 00:00:00:00
©TSC : 30
©TSZ : 1

Видео
Идентификатор : 1
Формат : AVC
Формат/Информация : Advanced Video Codec
Профиль формата : Main@L4.1
Параметр CABAC формата : Да
Параметр ReFrames формата : 4 кадра
Идентификатор кодека : avc1
Идентификатор кодека/Информация : Advanced Video Coding
Продолжительность : 26 м.
Битрейт : 5926 Кбит/сек
Ширина : 1920 пикселей
Высота : 1080 пикселей
Соотношение сторон : 16:9
Режим частоты кадров : Постоянный
Частота кадров : 30,000 кадров/сек
Стандарт вещания : NTSC
Цветовое пространство : YUV
Субдискретизация насыщенности : 4:2:0
Битовая глубина : 8 бит
Тип развёртки : Прогрессивная
Бит/(Пиксели*Кадры) : 0.095
Размер потока : 1,08 Гбайт (97%)
Язык : English
Дата кодирования : UTC 2017-07-03 23:15:31
Дата пометки : UTC 2017-07-03 23:15:31
Основные цвета : BT.709-5, BT.1361, IEC 61966-2-4, SMPTE RP177
Характеристики трансфера : BT.709-5, BT.1361
Коэффициенты матрицы : BT.709-5, BT.1361, IEC 61966-2-4 709, SMPTE RP177

Аудио
Идентификатор : 2
Формат : AAC
Формат/Информация : Advanced Audio Codec
Профиль формата : LC
Идентификатор кодека : 40
Продолжительность : 26 м.
Вид битрейта : Переменный
Битрейт : 192 Кбит/сек
Максимальный битрейт : 297 Кбит/сек
Каналы : 2 канала
Расположение каналов : Front: L R
Частота : 48,0 КГц
Метод сжатия : С потерями
Размер потока : 35,2 Мбайт (3%)
Язык : English
Дата кодирования : UTC 2017-07-03 23:15:31
Дата пометки : UTC 2017-07-03 23:15:31
Material_Duration : 1560107
Material_StreamSize : 36930650

pb.wtf



Скачать The Tryst List через торрент http://pic1.kartinco.top/images/12/m5vrr.jpg Скачать фильм The Tryst List через торрент бесплантно в хорошем качестве Описание: It's Playboy TV's sexual bucket list for loving couples. From erotic dances and steamy workouts to a naughty approach to arts and ... 8.8 10 10
Info! Золотая раздача, скачанное не засчитывается.
Торрент: Зарегистрирован [2019-05-15 16:43] · скачан: 158 раз
Статус: √ проверено
Размер: 8.9 GB
Как cкачать? Как скачать The Tryst List через торрент | qTorrent


>> Регистрируемся здесь <<






Отзывы и комментарии о схеме читаем и пишем здесь: ---> Отзывы и комментарии о схеме

Новые благодарочки в телеграм довольных пользователей:
скриншот   скриншот   скриншот   скриншот   скриншот

16-05-2019 11:53 The Tryst List Скачать торрент  

Топик был перенесен из форума Порно-ролики в форум HD ролики


nn99nnpb.wtf



    Дорогой пользователь! Огромная просьба, поблагодарите релизера, оцените раздачу и оставьте свои комментарий, если Вы скачали The Tryst List через торрент бесплатно! Внесите свою лепту в развитие PiratBit!
    Комментировать посты могут только пользователи прошедшие не сложную регистрацию
    Показать сообщения:    

    The Tryst List через торрент
    Скачать бесплатно The Tryst List
    The Tryst List скачать торрент
    The Tryst List смотреть онлайн
    Cкачать фильм The Tryst List бесплатно
    The Tryst List скачать торрент в хорошем качестве
    The Tryst List смотреть онлайн бесплатно в хорошем качестве


    Вы не можете начинать темы
    Вы не можете отвечать на сообщения
    Вы не можете редактировать свои сообщения
    Вы не можете удалять свои сообщения
    Вы не можете голосовать в опросах
    Вы не можете прикреплять файлы к сообщениям
    Вы можете скачивать файлы