Всегда рабочее зеркало без VPN и Proxy просто перед .vidak.icu напиши любое слово или цифру, Пример http://p540.vidak.icu

MVO

Лицензия

1 сезон

1

1 сезон

iTunes

1 сезон

13

1 сезон

Deluxe

pack

Рекомендуем

Repack

30

ВАЖНО

RePack

MK11

RePack

jed

RePack

fifa19

RePack

RDR2

RePack

NEED FOR SPEED™ PAYBACK

Кинопоиск HD

6 сезон

 Острые козырьки 6 сезон

Все сериалы

все сериалы на PB.wtf

RePack

FAR CRY 5
  
Magnet ссылка

Поле чудес (Поле мечты) / Field of Dreams (Фил Олден Робинсон) [1989, Фэнтези, драма, семейный, спорт, UHD BDRemux 2160p] 3xMVO + 2xAVO + VO pb.wtf

Поле чудес через торрент pb.wtf

Размер: 54.75 GB | Добавлен: 3 года 1 мес. назад | Торрент скачан:7 раз
Смотреть онлайн Поле чудес | Скачать    Ребята, помогите собрать деньги на оплату серверов!!!

17-05-2019 13:16 Поле чудес Скачать торрент  

Поле чудес / Field of Dreams««All his life, Ray Kinsella was searching for his dreams. Then one day, his dreams came looking for him»»

Год выпуска: 1989
Страна: США
Жанр: Фэнтези, драма, семейный, спорт
Продолжительность: 01:45:31
Перевод: Профессиональный многоголосый, профессиональный одноголосый, авторский
Субтитры: Русские, английские
Режиссер: Фил Олден Робинсон
В ролях:

Кевин Костнер (Ray Kinsella), Рэй Лиотта (Shoeless Joe Jackson), Берт Ланкастер (Dr. Archibald «Moonlight» Graham), Джеймс Эрл Джонс (Terence Mann), Эми Мэдиган (Annie Kinsella), Габи Хоффманн (Karin Kinsella), Тимоти Басфилд (Mark), Фрэнк Уэйли (Archie Graham), Дуайр Браун (John Kinsella), Джеймс Энделин (Feed Store Farmer), Мэри Энн Кин (Feed Store Lady), Ферн Персонс (Annie's Mother)
Описание:
Фермер из Айовы Рей Кинселла в недоумении. Последнее время он постоянно слышит голос, который советует ему построить бейсбольное поле на месте его кукурузных угодий. Кому-то, возможно, такое предложение и показалось бы начисто лишенным смысла. Но не Рею.
Рейтинг:

MPAA: PG - Рекомендуется присутствие родителей
Качество: UHD BDRemux 2160p
Формат: MKV
Видео: HEVC HDR, 64,5 Мбит/с, 3840x2160, 23.976 кадр/с
Аудио #1: 48 kHz, DTS, 2ch, ~768.00 kbps avg /RUS/ Многоголосый закадровый (Blu-ray EUR)
Аудио #2: 48 kHz, AC3, 2ch, ~192.00 kbps avg /RUS/ Многоголосый закадровый
Аудио #3: 48 kHz, AC3, 2ch, ~224.00 kbps avg /RUS/ Многоголосый закадровый, SDImedia
Аудио #4: 48 kHz, AC3, 2ch, ~224.00 kbps avg /RUS/ Одноголосый закадровый, В.Горчаков
Аудио #5: 48 kHz, AC3, 2ch, ~224.00 kbps avg /RUS/ Одноголосый закадровый, Неизвестный
Аудио #6: 48 kHz, DTS, 6ch, ~1509.00 kbps avg /RUS/ Одноголосый закадровый, А.Гаврилов
Аудио #7: 48 kHz, AC3, 2ch, ~192.00 kbps avg /UKR/ Многоголосый закадровый
Аудио #8: 48 kHz, DTS-HD MA, 8ch, ~6426.00 kbps avg /ENG/ Оригинал
Навигация по главам: есть

Полное имя : F:\Movies\Field.of.Dreams.1989.2160p.BluRay.REMUX.HEVC.Rus.Eng.Ukr.SpaceHD13.mkv
Формат : Matroska
Версия формата : Version 4
Размер файла : 54,7 Гбайт
Продолжительность : 1 ч. 45 м.
Режим общего битрейта : Переменный
Общий поток : 74,3 Мбит/сек
Название фильма : Field.of.Dreams.1989.2160p.BluRay.REMUX.HEVC.Rus.Eng.Ukr.SpaceHD13
Дата кодирования : UTC 2019-05-17 08:47:58
Программа кодирования : mkvmerge v33.0.0 ('A Little Bit of Madness') 64-bit
Библиотека кодирования : libebml v1.3.7 + libmatroska v1.5.0
Attachments : poster.png

Видео
Идентификатор : 1
Формат : HEVC
Формат/Информация : High Efficiency Video Coding
Коммерческое название : HDR10
Профиль формата : Main [email protected]@High
Идентификатор кодека : V_MPEGH/ISO/HEVC
Продолжительность : 1 ч. 45 м.
Битрейт : 64,5 Мбит/сек
Ширина : 3840 пикселей
Высота : 2160 пикселей
Соотношение сторон : 16:9
Режим частоты кадров : Постоянный
Частота кадров : 23,976 (24000/1001) кадра/сек
Цветовое пространство : YUV
Субдискретизация насыщенности : 4:2:0 (Type 2)
Битовая глубина : 10 бит
Бит/(Пиксели*Кадры) : 0.324
Размер потока : 47,5 Гбайт (87%)
Заголовок : Field.of.Dreams.1989.2160p.BluRay.REMUX.HEVC.Rus.Eng.Ukr.SpaceHD13
Default : Да
Forced : Нет
Цветовой диапазон : Limited
Основные цвета : BT.2020
Характеристики трансфера : PQ
Коэффициенты матрицы : BT.2020 non-constant
MasteringDisplay_ColorPrimaries : Display P3
MasteringDisplay_Luminance : min: 0.0050 cd/m2, max: 1000 cd/m2
MaxCLL : 1000 cd/m2
MaxFALL : 98 cd/m2

Аудио #1
Идентификатор : 2
Формат : DTS
Формат/Информация : Digital Theater Systems
Идентификатор кодека : A_DTS
Продолжительность : 1 ч. 45 м.
Вид битрейта : Постоянный
Битрейт : 768 Кбит/сек
Каналы : 2 канала
Channel layout : Lt Rt
Частота : 48,0 КГц
Частота кадров : 93,750 кадра/сек (512 SPF)
Битовая глубина : 24 бит
Метод сжатия : С потерями
Размер потока : 580 Мбайт (1%)
Заголовок : MVO,Blu-ray [EUR]
Язык : Russian
Default : Да
Forced : Нет

Аудио #2
Идентификатор : 3
Формат : AC-3
Формат/Информация : Audio Coding 3
Коммерческое название : Dolby Digital
Идентификатор кодека : A_AC3
Продолжительность : 1 ч. 45 м.
Вид битрейта : Постоянный
Битрейт : 192 Кбит/сек
Каналы : 2 канала
Channel layout : L R
Частота : 48,0 КГц
Частота кадров : 31,250 кадров/сек (1536 SPF)
Битовая глубина : 16 бит
Метод сжатия : С потерями
Размер потока : 145 Мбайт (0%)
Заголовок : MVO
Язык : Russian
ServiceKind/String : Complete Main
Default : Нет
Forced : Нет

Аудио #3
Идентификатор : 4
Формат : AC-3
Формат/Информация : Audio Coding 3
Коммерческое название : Dolby Digital
Идентификатор кодека : A_AC3
Продолжительность : 1 ч. 45 м.
Вид битрейта : Постоянный
Битрейт : 224 Кбит/сек
Каналы : 2 канала
Channel layout : L R
Частота : 48,0 КГц
Частота кадров : 31,250 кадров/сек (1536 SPF)
Битовая глубина : 16 бит
Метод сжатия : С потерями
Размер потока : 169 Мбайт (0%)
Заголовок : MVO, SDImedia
Язык : Russian
ServiceKind/String : Complete Main
Default : Нет
Forced : Нет

Аудио #4
Идентификатор : 5
Формат : AC-3
Формат/Информация : Audio Coding 3
Коммерческое название : Dolby Digital
Идентификатор кодека : A_AC3
Продолжительность : 1 ч. 45 м.
Вид битрейта : Постоянный
Битрейт : 224 Кбит/сек
Каналы : 2 канала
Channel layout : L R
Частота : 48,0 КГц
Частота кадров : 31,250 кадров/сек (1536 SPF)
Битовая глубина : 16 бит
Метод сжатия : С потерями
Размер потока : 169 Мбайт (0%)
Заголовок : AVO, В.Горчаков
Язык : Russian
ServiceKind/String : Complete Main
Default : Нет
Forced : Нет

Аудио #5
Идентификатор : 6
Формат : AC-3
Формат/Информация : Audio Coding 3
Коммерческое название : Dolby Digital
Идентификатор кодека : A_AC3
Продолжительность : 1 ч. 45 м.
Вид битрейта : Постоянный
Битрейт : 224 Кбит/сек
Каналы : 2 канала
Channel layout : L R
Частота : 48,0 КГц
Частота кадров : 31,250 кадров/сек (1536 SPF)
Битовая глубина : 16 бит
Метод сжатия : С потерями
Размер потока : 169 Мбайт (0%)
Заголовок : VO
Язык : Russian
ServiceKind/String : Complete Main
Default : Нет
Forced : Нет

Аудио #6
Идентификатор : 7
Формат : DTS
Формат/Информация : Digital Theater Systems
Идентификатор кодека : A_DTS
Продолжительность : 1 ч. 45 м.
Вид битрейта : Постоянный
Битрейт : 1509 Кбит/сек
Каналы : 6 каналов
Channel layout : C L R Ls Rs LFE
Частота : 48,0 КГц
Частота кадров : 93,750 кадра/сек (512 SPF)
Битовая глубина : 16 бит
Метод сжатия : С потерями
Размер потока : 1,11 Гбайт (2%)
Заголовок : AVO, А.Гаврилов
Язык : Russian
Default : Нет
Forced : Нет

Аудио #7
Идентификатор : 8
Формат : AC-3
Формат/Информация : Audio Coding 3
Коммерческое название : Dolby Digital
Идентификатор кодека : A_AC3
Продолжительность : 1 ч. 45 м.
Вид битрейта : Постоянный
Битрейт : 192 Кбит/сек
Каналы : 2 канала
Channel layout : L R
Частота : 48,0 КГц
Частота кадров : 31,250 кадров/сек (1536 SPF)
Битовая глубина : 16 бит
Метод сжатия : С потерями
Размер потока : 145 Мбайт (0%)
Заголовок : MVO
Язык : Ukrainian
ServiceKind/String : Complete Main
Default : Нет
Forced : Нет

Аудио #8
Идентификатор : 9
Формат : DTS XLL X
Формат/Информация : Digital Theater Systems
Коммерческое название : DTS-HD Master Audio
Идентификатор кодека : A_DTS
Продолжительность : 1 ч. 45 м.
Вид битрейта : Переменный
Битрейт : 6426 Кбит/сек
Каналы : 8 каналов
Channel(s)_Original : Object Based
Channel layout : Object Based
Частота : 48,0 КГц
Частота кадров : 93,750 кадра/сек (512 SPF)
Битовая глубина : 24 бит
Размер потока : 4,74 Гбайт (9%)
Язык : English
Default : Нет
Forced : Нет

Текст #1
Идентификатор : 10
Формат : PGS
Режим смешивания : zlib
Идентификатор кодека : S_HDMV/PGS
Идентификатор кодека/Информация : Picture based subtitle format used on BDs/HD-DVDs
Продолжительность : 1 ч. 43 м.
Битрейт : 34,8 Кбит/сек
ElementCount : 2574
Размер потока : 25,9 Мбайт (0%)
Заголовок : Blu-ray [EUR]
Язык : Russian
Default : Нет
Forced : Нет

Текст #2
Идентификатор : 11
Формат : UTF-8
Идентификатор кодека : S_TEXT/UTF8
Идентификатор кодека/Информация : UTF-8 Plain Text
Продолжительность : 1 ч. 39 м.
Битрейт : 100 бит/сек
ElementCount : 1148
Размер потока : 73,3 Кбайт (0%)
Язык : Russian
Default : Да
Forced : Да

Текст #3
Идентификатор : 12
Формат : PGS
Режим смешивания : zlib
Идентификатор кодека : S_HDMV/PGS
Идентификатор кодека/Информация : Picture based subtitle format used on BDs/HD-DVDs
Продолжительность : 1 ч. 39 м.
Битрейт : 26,5 Кбит/сек
ElementCount : 2296
Размер потока : 18,9 Мбайт (0%)
Язык : Russian
Default : Нет
Forced : Нет

Текст #4
Идентификатор : 13
Формат : PGS
Режим смешивания : zlib
Идентификатор кодека : S_HDMV/PGS
Идентификатор кодека/Информация : Picture based subtitle format used on BDs/HD-DVDs
Продолжительность : 1 ч. 38 м.
Битрейт : 39,2 Кбит/сек
ElementCount : 2728
Размер потока : 27,5 Мбайт (0%)
Язык : English
Default : Нет
Forced : Нет

Текст #5
Идентификатор : 14
Формат : UTF-8
Идентификатор кодека : S_TEXT/UTF8
Идентификатор кодека/Информация : UTF-8 Plain Text
Продолжительность : 1 ч. 38 м.
Битрейт : 57 бит/сек
ElementCount : 1347
Размер потока : 41,6 Кбайт (0%)
Язык : English
Default : Нет
Forced : Нет

Меню
00:00:00.000 : en:Chapter 01
00:03:51.272 : en:Chapter 02
00:08:56.702 : en:Chapter 03
00:11:30.523 : en:Chapter 04
00:13:49.411 : en:Chapter 05
00:15:24.882 : en:Chapter 06
00:17:19.038 : en:Chapter 07
00:21:38.046 : en:Chapter 08
00:25:00.499 : en:Chapter 09
00:27:07.375 : en:Chapter 10
00:29:09.080 : en:Chapter 11
00:33:47.108 : en:Chapter 12
00:35:35.299 : en:Chapter 13
00:39:30.534 : en:Chapter 14
00:42:32.550 : en:Chapter 15
00:46:14.438 : en:Chapter 16
00:52:26.518 : en:Chapter 17
00:54:03.740 : en:Chapter 18
00:58:00.602 : en:Chapter 19
00:59:09.337 : en:Chapter 20
01:03:15.792 : en:Chapter 21
01:05:52.782 : en:Chapter 22
01:09:37.631 : en:Chapter 23
01:11:03.384 : en:Chapter 24
01:12:30.262 : en:Chapter 25
01:15:24.102 : en:Chapter 26
01:17:48.246 : en:Chapter 27
01:20:39.334 : en:Chapter 28
01:22:28.777 : en:Chapter 29
01:26:25.680 : en:Chapter 30
01:28:08.116 : en:Chapter 31
01:30:02.146 : en:Chapter 32
01:34:17.818 : en:Chapter 33
01:37:32.263 : en:Chapter 34
pb.wtf



Скачать Поле чудес через торрент https://b.radikal.ru/b33/1905/32/ef10cec32381.jpg Скачать, смотреть онлайн Поле чудес бесплантно в хорошем качестве Описание: Фермер из Айовы Рей Кинселла в недоумении. Последнее время он постоянно слышит голос, который советует ему построить бейсбольное ... 5 10 1
Торрент: Зарегистрирован [2019-05-17 13:16] · скачан: 7 раз
Статус: √ проверено
Размер: 54.75 GB
Как cкачать? Как скачать Поле чудес через торрент | UTorrent

28-11-2019 20:33  

Отключить всю рекламу на сайте

    Дорогой пользователь! Огромная просьба, поблагодарите релизера, оцените раздачу и оставьте свои комментарий, если Вы скачали Поле чудес через торрент бесплатно!
    Комментировать посты могут только пользователи прошедшие не сложную регистрацию
    Показать сообщения:    

    Поле чудес через торрент
    Скачать бесплатно Поле чудес
    Поле чудес скачать торрент
    Поле чудес смотреть онлайн
    Cкачать фильм Поле чудес бесплатно
    Поле чудес скачать торрент в хорошем качестве
    Поле чудес смотреть онлайн бесплатно в хорошем качестве


    Вы не можете начинать темы
    Вы не можете отвечать на сообщения
    Вы не можете редактировать свои сообщения
    Вы не можете удалять свои сообщения
    Вы не можете голосовать в опросах
    Вы не можете прикреплять файлы к сообщениям
    Вы можете скачивать файлы