Ссылка на приватное зеркало всего за 1$. Внимание количество ограничено!!!

OK

1+1

iTunes

мы

OK

1

WEB-DLRip

Джокер

Пифагор

Ведьмак / The Witcher сериал

iTunes

ПШазам

ОК

Оно 2

iTunes

30
pack

Вам бонус

ВАЖНО

!!Акция!!

Alien_RageХит недели

RePack

Resident Evil 21

ИГРА 18+

pack

RePack

jed

RePack

fifa19

RePack

Assassins Creed: Odyssey

RePack

NEED FOR SPEED™ PAYBACK

4 сезон

9 сезон

Бесстыжие 9 сезон

Все сериалы

все сериалы на PB.wtf

RePack

FAR CRY 5
  

Шахерезада / Shéhérazade (Жан-Бернар Марлин) [2018, триллер, драма, мелодрама, WEB-DL 720p] MVO ["Синема УС"] pb.wtf

Шахерезада через торрент pb.wtf

Размер: 4.28 GB | Добавлен: 8 мес. назад | Торрент скачан:14 раз
Скачать  

17-05-2019 18:27 Шахерезада Скачать торрент  

Шахерезада / Shéhérazade Год выпуска: 2018
Страна: Франция
Жанр: триллер, драма, мелодрама
Продолжительность: 01:47:23
Перевод: Любительский (многоголосый) | "Синема УС"
Субтитры: отсутствуют

Режиссер: Жан-Бернар Марлин

rating

В ролях:

Дилан Робер, Кенза Форта, Идир Азугли, Лиза Амеджоут, Кадер Бенчоудар, Набила Айт Амер, Набила Бунад, Софиан Бентоуми, Осман Хрустик, Абделла Хулален

Описание:

17-летний Захари освобождается из тюрьмы. Он отвергнут своей матерью, поэтому парню приходится самому выживать на улицах Марселя. Но неожиданно он встречает Шехерезаду, которая меняет его жизнь навсегда.

Качество: WEB-DL 720p
Формат: MKV

Видео: h.264,5 324 Кбит/с, 1280x536
Аудио: Русский, (AC3, 2 ch, 384 Кбит/с)
скриншот  скриншот  скриншот  

Общее
Уникальный идентификатор : 233579405322943849476976503781102627514 (0xAFB9C1D1FC14A060B4617CFB9002AABA)
Полное имя : D:\Sheherazade.2018.P.WEB-DL.72Op.mkv
Формат : Matroska
Версия формата : Version 2
Размер файла : 4,28 Гбайт
Продолжительность : 1 ч. 47 м.
Режим общего битрейта : Переменный
Общий поток : 5710 Кбит/сек
Дата кодирования : UTC 2019-05-17 03:11:01
Программа кодирования : mkvmerge v8.3.0 ('Over the Horizon') 64bit
Библиотека кодирования : libebml v1.3.1 + libmatroska v1.4.2

Видео
Идентификатор : 1
Формат : AVC
Формат/Информация : Advanced Video Codec
Профиль формата : High@L4.1
Параметр CABAC формата : Да
Параметр RefFrames формата : 4 кадра
Идентификатор кодека : V_MPEG4/ISO/AVC
Продолжительность : 1 ч. 47 м.
Вид битрейта : Переменный
Битрейт : 5324 Кбит/сек
Максимальный битрейт : 6000 Кбит/сек
Ширина : 1280 пикселей
Высота : 536 пикселей
Соотношение сторон : 2,40:1
Режим частоты кадров : Постоянный
Частота кадров : 23,976 (24000/1001) кадра/сек
Стандарт вещания : Component
Цветовое пространство : YUV
Субдискретизация насыщенности : 4:2:0
Битовая глубина : 8 бит
Тип развёртки : Прогрессивная
Бит/(Пиксели*Кадры) : 0.317
Размер потока : 3,91 Гбайт (91%)
Default : Да
Forced : Нет
Цветовой диапазон : Limited
Основные цвета : BT.709
Характеристики трансфера : BT.709
Коэффициенты матрицы : BT.709

Аудио
Идентификатор : 2
Формат : AC-3
Формат/Информация : Audio Coding 3
Расширение режима : CM (complete main)
Параметр Endianness формата : Big
Идентификатор кодека : A_AC3
Продолжительность : 1 ч. 47 м.
Вид битрейта : Постоянный
Битрейт : 384 Кбит/сек
Каналы : 2 канала
Расположение каналов : Front: L R
Частота : 48,0 КГц
Частота кадров : 31,250 кадров/сек (1536 spf)
Метод сжатия : С потерями
Размер потока : 295 Мбайт (7%)
Default : Да
Forced : Нет

pb.wtf



Скачать Шахерезада через торрент https://a.radikal.ru/a25/1905/7a/bfead6d72e9c.jpg Скачать фильм Шахерезада через торрент бесплантно в хорошем качестве Описание: 17-летний Захари освобождается из тюрьмы. Он отвергнут своей матерью, поэтому парню приходится самому выживать на улицах Марселя. ... 9.8 10 4
Торрент: Зарегистрирован [2019-05-17 18:27] · скачан: 14 раз
Статус: T временная
Размер: 4.28 GB
Как cкачать? Как скачать Шахерезада через торрент | qTorrent

% Раздел Тема Автор DL S | L
T Фильмы (мультфильмы) cо спонсором показа (Новинки AVI/MKV) [ 1.37 GB ] Шахерезада / Shéhérazade [2018 WEB-DLRip] MVO ["Синема УС"] bober100 Скачать
1 | 0

28-11-2019 20:33  

Отключить всю рекламу на сайте

    Дорогой пользователь! Огромная просьба, поблагодарите релизера, оцените раздачу и оставьте свои комментарий, если Вы скачали Шахерезада через торрент бесплатно! Внесите свою лепту в развитие PiratBit!
    Комментировать посты могут только пользователи прошедшие не сложную регистрацию
    Показать сообщения:    

    Шахерезада через торрент
    Скачать бесплатно Шахерезада
    Шахерезада скачать торрент
    Шахерезада смотреть онлайн
    Cкачать фильм Шахерезада бесплатно
    Шахерезада скачать торрент в хорошем качестве
    Шахерезада смотреть онлайн бесплатно в хорошем качестве


    Вы не можете начинать темы
    Вы не можете отвечать на сообщения
    Вы не можете редактировать свои сообщения
    Вы не можете удалять свои сообщения
    Вы не можете голосовать в опросах
    Вы не можете прикреплять файлы к сообщениям
    Вы можете скачивать файлы