Мега распродажа FORZA HORIZON 4 ULTIMATE+ВСЕ DLC+ОНЛАЙН всего за 499р. 349 руб. (супер цена). Внимание количество ограничено!!!

Лицензия

30

iTunes

мы

iTunes

1

1 сезон

Чернобыль

1 сезон

Ральф против интернета

MVO

Покемон. Детектив Пикачу

8 сезон

Игра престолов

iTunes

1+1

ИГРА 18+

pack

ВАЖНО

!!Акция!!

Alien_RageХит недели

RePack

Resident Evil 21
pack

RePack

Metro:Exodus

!!Акция!!

Alien_Rage

RePack

fifa19

RePack

Assassins Creed: Odyssey

RePack

NEED FOR SPEED™ PAYBACK

3 сезон

9 сезон

Бесстыжие 9 сезон

Все сериалы

все сериалы на PB.wtf

RePack

FAR CRY 5
Ребята, катастрофически не хватает 2730р. для оплаты серверов за МАЙ (всвязи с блокировками трафик упал в 3 раза), 1-2р., выручайте.
  

Чего хотят мужчины / What Men Want (фэнтези, мелодрама, комедия) [2019 г., Адам Шенкман, HDRip, Дубляж iTunes] pb.wtf

Чего хотят мужчины через торрент pb.wtf

Раздают: 6 [ 0 KB/s ]
Размер: 712 MB | Добавлен: 1 мес. назад | Торрент скачан:77 раз
Скачать  

17-05-2019 18:47 Чего хотят мужчины Скачать торрент  

Чего хотят мужчины / What Men Want
Год выпуска: 2019
Страна: США / BET Films, Paramount Players, Will Packer Productions
Жанр: Адам Шенкман
Продолжительность: 01:57:06
Перевод: Дубляж(iTunes)
Субтитры: Русские форсированные - вшитые

Режиссер: фэнтези, мелодрама, комедия

rating

В ролях: Тараджи П. Хенсон, Кристен Ледлоу, Джош Бренер, Келлан Латс, Джастин Альварез, Крис Витаск, Макс Гринфилд, Пол Брайан Джонсон, Брайан Босворт, Каусар Мохаммед

Описание: Али Дэвис - успешный менеджер спортивных звезд, продвижению по карьере которой постоянно мешают коллеги-мужчины. Получив возможность слышать мысли мужчин, она использует свой талант, чтобы изменить правила игры и заключить контракт с молодым и талантливым бейсболистом.

Качество: HDRip
Видео кодек: XviD
Аудио кодек: MP3
Видео: 640x272 (2.35:1), 23.976 fps, XviD build 50 ~712 kbps avg, 0.17 bit/pixel
Аудио: 48 kHz, MPEG Layer 3, 2 ch, ~128.00 kbps avg
скриншот   скриншот   скриншот   скриншот  

Общее
Полное имя : F:\ФИЛЬМЫ\Чего хотят мужчины.2019.D.HDRip.avi
Формат : AVI
Формат/Информация : Audio Video Interleave
Размер файла : 712 Мбайт
Продолжительность : 1 ч. 57 м.
Общий поток : 850 Кбит/сек
Программа кодирования : VirtualDubMod 1.5.10.3 | www.virtualdub-fr.org || (build 2550/release)
Библиотека кодирования : VirtualDubMod build 2550/release

Видео
Идентификатор : 0
Формат : MPEG-4 Visual
Профиль формата : Advanced Simple@L5
Настройки формата : BVOP3 / GMC3 / QPel
Параметр BVOP формата : 3
Параметр QPel формата : Да
Параметр GMC формата : 3 точки перехода
Параметр матрицы формата : Default (MPEG)
Идентификатор кодека : XVID
Идентификатор кодека/Подсказка : XviD
Продолжительность : 1 ч. 57 м.
Битрейт : 712 Кбит/сек
Ширина : 640 пикселей
Высота : 272 пикселя
Соотношение сторон : 2,35:1
Частота кадров : 23,976 (24000/1001) кадра/сек
Цветовое пространство : YUV
Субдискретизация насыщенности : 4:2:0
Битовая глубина : 8 бит
Тип развёртки : Прогрессивная
Метод сжатия : С потерями
Бит/(Пиксели*Кадры) : 0.171
Размер потока : 597 Мбайт (84%)
Библиотека кодирования : XviD 1.2.1 (UTC 2008-12-04)

Аудио
Идентификатор : 1
Формат : MPEG Audio
Версия формата : Version 1
Профиль формата : Layer 3
Настройки формата : Joint stereo
Идентификатор кодека : 55
Идентификатор кодека/Подсказка : MP3
Продолжительность : 1 ч. 57 м.
Вид битрейта : Постоянный
Битрейт : 128 Кбит/сек
Каналы : 2 канала
Частота : 48,0 КГц
Частота кадров : 41,667 кадра/сек (1152 SPF)
Метод сжатия : С потерями
Размер потока : 107 Мбайт (15%)
Выравнивание : Соединение по промежуткам
Продолжительность промежутка : 42 мс. (1,00 видеокадр)
Время предзагрузки промежутка : 504 мс.
Библиотека кодирования : LAME3.99r
Настройки программы : -m j -V 4 -q 2 -lowpass 17 -b 128

pb.wtf



Скачать Чего хотят мужчины через торрент http://pic1.kartinco.top/images/12/mr2de.jpg Скачать фильм Чего хотят мужчины через торрент бесплантно в хорошем качестве Описание: Али Дэвис - успешный менеджер спортивных звезд, продвижению по карьере которой постоянно мешают коллеги-мужчины. Получив ... 10 10 2
Торрент: Зарегистрирован [2019-05-17 18:47] · скачан: 77 раз
Статус: √ проверено
Размер: 712 MB
Как cкачать? Как скачать Чего хотят мужчины через торрент | qTorrent

% Раздел Тема Автор DL S | L
Фильмы 2019 [DVDrip, WEB-DLRip, HDrip] (DUB, MVO) [ 2.24 GB ] Чего хотят мужчины / What Men Want [2019 BDRip-AVC] Dub - ExKinoRay Enigma2010 Скачать
67 | 2
T Фильмы 2019 [DVDrip, WEB-DLRip, HDrip] (DUB, MVO) [ 1.45 GB ] Чего хотят мужчины / What Men Want [2019 BDRip] MVO [HDrezka Studio] - ExKinoRay Enigma2010 Скачать
1209 | 46
T Фильмы (мультфильмы) cо спонсором показа (Новинки AVI/MKV) [ 4.75 GB ] Чего хотят мужчины / What Men Want [2019 WEB-DL 720p] DUB [Line] bober100 Скачать
7 | 0
T Фильмы (мультфильмы) cо спонсором показа (Новинки AVI/MKV) [ 2.05 GB ] Чего хотят мужчины / What Men Want [2019 WEB-DLRip] DUB [Line] bober100 Скачать
3 | 0
T Фильмы (мультфильмы) cо спонсором показа (Новинки AVI/MKV) [ 1.37 GB ] Чего хотят мужчины / What Men Want [2019 WEB-DLRip] DUB [Line] bober100 Скачать
2 | 0


>> Регистрируемся здесь <<






Отзывы и комментарии о схеме читаем и пишем здесь: ---> Отзывы и комментарии о схеме

Новые благодарочки в телеграм довольных пользователей:
скриншот   скриншот   скриншот   скриншот   скриншот

18-05-2019 08:44 Чего хотят мужчины Скачать торрент  

Бездарный ремейк старого, доброго "Чего хотят женщины". Но безумно толерантный (одни нигеры и геи)pb.wtf



20-05-2019 15:57 Чего хотят мужчины Скачать торрент  

AVPankin писал(а):

Бездарный ремейк старого, доброго "Чего хотят женщины". Но безумно толерантный (одни нигеры и геи)

+1pb.wtf



    Дорогой пользователь! Огромная просьба, поблагодарите релизера, оцените раздачу и оставьте свои комментарий, если Вы скачали Чего хотят мужчины через торрент бесплатно! Внесите свою лепту в развитие PiratBit!
    Комментировать посты могут только пользователи прошедшие не сложную регистрацию
    Показать сообщения:    

    Чего хотят мужчины через торрент
    Скачать бесплатно Чего хотят мужчины
    Чего хотят мужчины скачать торрент
    Чего хотят мужчины смотреть онлайн
    Cкачать фильм Чего хотят мужчины бесплатно
    Чего хотят мужчины скачать торрент в хорошем качестве
    Чего хотят мужчины смотреть онлайн бесплатно в хорошем качестве


    Вы не можете начинать темы
    Вы не можете отвечать на сообщения
    Вы не можете редактировать свои сообщения
    Вы не можете удалять свои сообщения
    Вы не можете голосовать в опросах
    Вы не можете прикреплять файлы к сообщениям
    Вы можете скачивать файлы