Ссылка на приватное зеркало всего за 1$. Внимание количество ограничено!!!

OK

1+1

iTunes

мы

OK

1

WEB-DLRip

Джокер

Пифагор

Ведьмак / The Witcher сериал

iTunes

ПШазам

ОК

Оно 2

iTunes

30
pack

Вам бонус

ВАЖНО

!!Акция!!

Alien_RageХит недели

RePack

Resident Evil 21

ИГРА 18+

pack

RePack

jed

RePack

fifa19

RePack

Assassins Creed: Odyssey

RePack

NEED FOR SPEED™ PAYBACK

4 сезон

9 сезон

Бесстыжие 9 сезон

Все сериалы

все сериалы на PB.wtf

RePack

FAR CRY 5
  

Как Дома / A Feeling of Home (Ричард Габай) [2019, Мелодрама, HDTVRip 720p] MVO ["Синема УС"] pb.wtf

Как Дома через торрент pb.wtf

Размер: 2.86 GB | Добавлен: 8 мес. назад | Торрент скачан:6 раз
Скачать  

17-05-2019 18:59 Как Дома Скачать торрент  

Как Дома / A Feeling of Home Год выпуска: 2019
Страна: США
Жанр: Мелодрама
Продолжительность: 01:23:49
Перевод: Любительский (многоголосый) | "Синема УС"
Субтитры: отсутствуют

Режиссер: Ричард Габай

rating

В ролях:

Робби Бенсон, Шеннон Чан-Кент, Ричард Иэн Кокс, Эндрю Хендерсон, Мэри-Маргарет Хьюмс, Дэвид Льюис, Мэтт Мазур, Нэйтан Парсонс, Мэдди Филлипс, Кэйтлин Кромуэлл

Описание:

Веб предприниматель Эбби скрывает свои техасские корни, чтобы убедить инвестора, что она из Новой Англии. Задача усложняется внеплановой поездкой домой и неожиданной встречей с её школьной любовью, Райаном.

Качество: HDTVRip 720p
Формат: MKV

Видео: h.264,4 494 Кбит/с, 1280x720
Аудио: Русский, (AC3, 2 ch, 384 Кбит/с)
скриншот  скриншот  скриншот  

Общее
Уникальный идентификатор : 213144064790877512347500710913851428833 (0xA05A0DBE4B70477C92AFE1B1FCD28FE1)
Полное имя : D:\A.feeling.of.home.2019.P.HDTV.72Op.mkv
Формат : Matroska
Версия формата : Version 2
Размер файла : 2,86 Гбайт
Продолжительность : 1 ч. 23 м.
Режим общего битрейта : Переменный
Общий поток : 4880 Кбит/сек
Дата кодирования : UTC 2019-05-17 10:42:53
Программа кодирования : mkvmerge v8.3.0 ('Over the Horizon') 64bit
Библиотека кодирования : libebml v1.3.1 + libmatroska v1.4.2

Видео
Идентификатор : 1
Формат : AVC
Формат/Информация : Advanced Video Codec
Профиль формата : High@L4.1
Параметр CABAC формата : Да
Параметр RefFrames формата : 4 кадра
Идентификатор кодека : V_MPEG4/ISO/AVC
Продолжительность : 1 ч. 23 м.
Вид битрейта : Переменный
Битрейт : 4494 Кбит/сек
Максимальный битрейт : 5000 Кбит/сек
Ширина : 1280 пикселей
Высота : 720 пикселей
Соотношение сторон : 16:9
Режим частоты кадров : Постоянный
Частота кадров : 23,976 (24000/1001) кадра/сек
Стандарт вещания : Component
Цветовое пространство : YUV
Субдискретизация насыщенности : 4:2:0
Битовая глубина : 8 бит
Тип развёртки : Прогрессивная
Бит/(Пиксели*Кадры) : 0.199
Размер потока : 2,58 Гбайт (90%)
Default : Да
Forced : Нет
Цветовой диапазон : Limited
Основные цвета : BT.709
Характеристики трансфера : BT.709
Коэффициенты матрицы : BT.709

Аудио
Идентификатор : 2
Формат : AC-3
Формат/Информация : Audio Coding 3
Расширение режима : CM (complete main)
Параметр Endianness формата : Big
Идентификатор кодека : A_AC3
Продолжительность : 1 ч. 23 м.
Вид битрейта : Постоянный
Битрейт : 384 Кбит/сек
Каналы : 2 канала
Расположение каналов : Front: L R
Частота : 48,0 КГц
Частота кадров : 31,250 кадров/сек (1536 spf)
Метод сжатия : С потерями
Размер потока : 230 Мбайт (8%)
Default : Да
Forced : Нет

pb.wtf



Скачать Как Дома через торрент https://d.radikal.ru/d39/1905/35/f40d7cd52409.jpg Скачать фильм Как Дома через торрент бесплантно в хорошем качестве Описание: Веб предприниматель Эбби скрывает свои техасские корни, чтобы убедить инвестора, что она из Новой Англии. Задача усложняется ... 10 10 2
Торрент: Зарегистрирован [2019-05-17 18:59] · скачан: 6 раз
Статус: T временная
Размер: 2.86 GB
Как cкачать? Как скачать Как Дома через торрент | qTorrent

% Раздел Тема Автор DL S | L
T Фильмы (мультфильмы) cо спонсором показа (Новинки AVI/MKV) [ 1.37 GB ] Как Дома / A Feeling of Home [2019 Мело HDTVRip] MVO ["Синема УС"] bober100 Скачать
1 | 0

28-11-2019 20:33  

Отключить всю рекламу на сайте

    Дорогой пользователь! Огромная просьба, поблагодарите релизера, оцените раздачу и оставьте свои комментарий, если Вы скачали Как Дома через торрент бесплатно! Внесите свою лепту в развитие PiratBit!
    Комментировать посты могут только пользователи прошедшие не сложную регистрацию
    Показать сообщения:    

    Как Дома через торрент
    Скачать бесплатно Как Дома
    Как Дома скачать торрент
    Как Дома смотреть онлайн
    Cкачать фильм Как Дома бесплатно
    Как Дома скачать торрент в хорошем качестве
    Как Дома смотреть онлайн бесплатно в хорошем качестве


    Вы не можете начинать темы
    Вы не можете отвечать на сообщения
    Вы не можете редактировать свои сообщения
    Вы не можете удалять свои сообщения
    Вы не можете голосовать в опросах
    Вы не можете прикреплять файлы к сообщениям
    Вы можете скачивать файлы