Ссылка на приватное зеркало всего за 1$. Внимание количество ограничено!!!

OK

1+1

iTunes

мы

OK

1

WEB-DLRip

Джокер

Пифагор

Ведьмак / The Witcher сериал

iTunes

ПШазам

ОК

Оно 2

iTunes

30
pack

Вам бонус

ВАЖНО

!!Акция!!

Alien_RageХит недели

RePack

Resident Evil 21

ИГРА 18+

pack

RePack

jed

RePack

fifa19

RePack

Assassins Creed: Odyssey

RePack

NEED FOR SPEED™ PAYBACK

4 сезон

9 сезон

Бесстыжие 9 сезон

Все сериалы

все сериалы на PB.wtf

RePack

FAR CRY 5
  

Путешествие на Запад: Демоны / Journey to the West: Demon Chapter / Xi you fu yao pian (Цуй Харк) [2017, фэнтези, комедия, приключения, BDRip 720p] MVO ["Синема УС"] pb.wtf

Путешествие на Запад: Демоны через торрент pb.wtf

Размер: 5.53 GB | Добавлен: 8 мес. назад | Торрент скачан:24 раза
Скачать  

17-05-2019 19:21 Путешествие на Запад: Демоны Скачать торрент  

Путешествие на Запад: Демоны / Journey to the West: Demon Chapter / Xi you fu yao pian Год выпуска: 2017
Страна: Китай
Жанр: фэнтези, комедия, приключения
Продолжительность: 01:50:26
Перевод: Любительский (многоголосый) | "Синема УС"
Субтитры: отсутствуют

Режиссер: Цуй Харк

rating

В ролях:

Крис У, Кенни Линь, Яо Чэнь, Джелли Линь, Ян Ивэй, Менге Батыр, Ван Ликунь, Бао Бэйэр, Тони Ван, Да Пэн

Описание:

Путешествие за священными писаниями продолжается. Иногда монаху Тан Саньцзану снится, что их цель достигнута, и он получает вознаграждение от Богов. Но в реальности всё гораздо печальней: ради пропитания необычной компании приходится веселить базарную публику, а монаху - ещё и следить, чтобы Царь обезьян не зашиб ненароком кого-нибудь из селян. Отношения между этими двумя не особо тёплые и основаны на взаимном шантаже и угрозах, но хитрые демоны не дремлют и так и норовят напасть на путников, поэтому монаху, Царю обезьян, свинье и речному дракону лучше держаться вместе.

Качество: BDRip 720p
Формат: MKV

Видео: h.264,6 715 Кбит/с, 1280x692
Аудио: Русский (AC3, 2 ch, 448 Кбит/с)
скриншот  скриншот  скриншот  

Общее
Уникальный идентификатор : 254602150719101955322402675683652651606 (0xBF8A9731665907EA9901F9FA4375CA56)
Полное имя : D:\Journey.to.the.West.The.Demons.Strike.Back.2O17.P.BDRip.72Op.mkv
Формат : Matroska
Версия формата : Version 2
Размер файла : 5,53 Гбайт
Продолжительность : 1 ч. 50 м.
Режим общего битрейта : Переменный
Общий поток : 7164 Кбит/сек
Дата кодирования : UTC 2019-05-17 10:40:08
Программа кодирования : mkvmerge v8.3.0 ('Over the Horizon') 64bit
Библиотека кодирования : libebml v1.3.1 + libmatroska v1.4.2

Видео
Идентификатор : 1
Формат : AVC
Формат/Информация : Advanced Video Codec
Профиль формата : High@L4.1
Параметр CABAC формата : Да
Параметр RefFrames формата : 4 кадра
Идентификатор кодека : V_MPEG4/ISO/AVC
Продолжительность : 1 ч. 50 м.
Вид битрейта : Переменный
Битрейт : 6715 Кбит/сек
Максимальный битрейт : 7500 Кбит/сек
Ширина : 1280 пикселей
Высота : 692 пикселя
Соотношение сторон : 1,85:1
Режим частоты кадров : Постоянный
Частота кадров : 23,976 (24000/1001) кадра/сек
Стандарт вещания : Component
Цветовое пространство : YUV
Субдискретизация насыщенности : 4:2:0
Битовая глубина : 8 бит
Тип развёртки : Прогрессивная
Бит/(Пиксели*Кадры) : 0.310
Размер потока : 5,07 Гбайт (92%)
Default : Да
Forced : Нет
Цветовой диапазон : Limited
Основные цвета : BT.709
Характеристики трансфера : BT.709
Коэффициенты матрицы : BT.709

Аудио
Идентификатор : 2
Формат : AC-3
Формат/Информация : Audio Coding 3
Расширение режима : CM (complete main)
Параметр Endianness формата : Big
Идентификатор кодека : A_AC3
Продолжительность : 1 ч. 50 м.
Вид битрейта : Постоянный
Битрейт : 448 Кбит/сек
Каналы : 2 канала
Расположение каналов : Front: L R
Частота : 48,0 КГц
Частота кадров : 31,250 кадров/сек (1536 spf)
Метод сжатия : С потерями
Размер потока : 354 Мбайт (6%)
Default : Да
Forced : Нет

pb.wtf



Скачать Путешествие на Запад: Демоны через торрент https://a.radikal.ru/a12/1905/2c/ad1dd00880e3.jpg Скачать фильм Путешествие на Запад: Демоны через торрент бесплантно в хорошем качестве Описание: Путешествие за священными писаниями продолжается. Иногда монаху Тан Саньцзану снится, что их цель достигнута, и он получает ... 10 10 2
Торрент: Зарегистрирован [2019-05-17 19:21] · скачан: 24 раз
Статус: # сомнительно
Размер: 5.53 GB
Как cкачать? Как скачать Путешествие на Запад: Демоны через торрент | qTorrent

% Раздел Тема Автор DL S | L
T Фильмы (мультфильмы) cо спонсором показа (Новинки AVI/MKV) [ 1.37 GB ] Путешествие на Запад: Демоны / Journey to the West: Demon Chapter / Xi you fu yao pian [2017 HDRip] MVO ["Синема УС"] bober100 Скачать
1 | 0

28-11-2019 20:33  

Отключить всю рекламу на сайте

    Дорогой пользователь! Огромная просьба, поблагодарите релизера, оцените раздачу и оставьте свои комментарий, если Вы скачали Путешествие на Запад: Демоны через торрент бесплатно! Внесите свою лепту в развитие PiratBit!
    Комментировать посты могут только пользователи прошедшие не сложную регистрацию
    Показать сообщения:    

    Путешествие на Запад: Демоны через торрент
    Скачать бесплатно Путешествие на Запад: Демоны
    Путешествие на Запад: Демоны скачать торрент
    Путешествие на Запад: Демоны смотреть онлайн
    Cкачать фильм Путешествие на Запад: Демоны бесплатно
    Путешествие на Запад: Демоны скачать торрент в хорошем качестве
    Путешествие на Запад: Демоны смотреть онлайн бесплатно в хорошем качестве


    Вы не можете начинать темы
    Вы не можете отвечать на сообщения
    Вы не можете редактировать свои сообщения
    Вы не можете удалять свои сообщения
    Вы не можете голосовать в опросах
    Вы не можете прикреплять файлы к сообщениям
    Вы можете скачивать файлы