Ссылка на приватное зеркало всего за 1$. Внимание количество ограничено!!!

OK

1+1

iTunes

мы

OK

1

WEB-DLRip

Джокер

Пифагор

Ведьмак / The Witcher сериал

iTunes

ПШазам

ОК

Оно 2

iTunes

30
pack

Вам бонус

ВАЖНО

!!Акция!!

Alien_RageХит недели

RePack

Resident Evil 21

ИГРА 18+

pack

RePack

jed

RePack

fifa19

RePack

Assassins Creed: Odyssey

RePack

NEED FOR SPEED™ PAYBACK

4 сезон

9 сезон

Бесстыжие 9 сезон

Все сериалы

все сериалы на PB.wtf

RePack

FAR CRY 5
  

Люди приходят и уходят / Gente que viene y bah (Патрисия Фонт) [2019, комедия, WEB-DL 720p] MVO ["Синема УС"] pb.wtf

Люди приходят и уходят через торрент pb.wtf

Размер: 3.97 GB | Добавлен: 8 мес. назад | Торрент скачан:6 раз
Скачать  

17-05-2019 19:49 Люди приходят и уходят Скачать торрент  

Люди приходят и уходят / Gente que viene y bah Год выпуска: 2019
Страна: Испания
Жанр: комедия
Продолжительность: 01:38:32
Перевод: Любительский (многоголосый) | "Синема УС"
Субтитры: отсутствуют

Режиссер: Патрисия Фонт

rating

В ролях:

Клара Лаго, Алекс Гарсия, Александра Хименес, Паула Малия, Фернандо Гуаллар, Карлос Куэвас, Кармен Маура, Нурия Гаго, Марта Бельмонте, Эдуардо Феррес

Описание:

Молодого архитектора Беа увольняют с работы и вдобавок она узнает, что её жених изменяет ей с известной тележурналисткой. Беа решает вернуться в родной город к своей эксцентричной семье и начать новую жизнь. Но это оказалось не так-то просто ...

Качество: WEB-DL 720p
Формат: MKV

Видео: h.264,5 379 Кбит/с, 1280x536
Аудио: Русский, (AC3, 2 ch, 384 Кбит/с)
скриншот  скриншот  скриншот  

Общее
Уникальный идентификатор : 214583523848586619969706147360667399714 (0xA16F488DE63D1A57BC80B328300CF622)
Полное имя : D:\Gente.que.viene.y.bah.2O18.P.WEB-DL.72Op.mkv
Формат : Matroska
Версия формата : Version 2
Размер файла : 3,97 Гбайт
Продолжительность : 1 ч. 38 м.
Режим общего битрейта : Переменный
Общий поток : 5765 Кбит/сек
Дата кодирования : UTC 2019-05-17 04:56:42
Программа кодирования : mkvmerge v8.3.0 ('Over the Horizon') 64bit
Библиотека кодирования : libebml v1.3.1 + libmatroska v1.4.2

Видео
Идентификатор : 1
Формат : AVC
Формат/Информация : Advanced Video Codec
Профиль формата : High@L4.1
Параметр CABAC формата : Да
Параметр RefFrames формата : 4 кадра
Идентификатор кодека : V_MPEG4/ISO/AVC
Продолжительность : 1 ч. 38 м.
Вид битрейта : Переменный
Битрейт : 5379 Кбит/сек
Максимальный битрейт : 6000 Кбит/сек
Ширина : 1280 пикселей
Высота : 536 пикселей
Соотношение сторон : 2,40:1
Режим частоты кадров : Постоянный
Частота кадров : 23,976 (24000/1001) кадра/сек
Стандарт вещания : Component
Цветовое пространство : YUV
Субдискретизация насыщенности : 4:2:0
Битовая глубина : 8 бит
Тип развёртки : Прогрессивная
Бит/(Пиксели*Кадры) : 0.320
Размер потока : 3,62 Гбайт (91%)
Default : Да
Forced : Нет
Цветовой диапазон : Limited
Основные цвета : BT.709
Характеристики трансфера : BT.709
Коэффициенты матрицы : BT.709

Аудио
Идентификатор : 2
Формат : AC-3
Формат/Информация : Audio Coding 3
Расширение режима : CM (complete main)
Параметр Endianness формата : Big
Идентификатор кодека : A_AC3
Продолжительность : 1 ч. 38 м.
Вид битрейта : Постоянный
Битрейт : 384 Кбит/сек
Каналы : 2 канала
Расположение каналов : Front: L R
Частота : 48,0 КГц
Частота кадров : 31,250 кадров/сек (1536 spf)
Метод сжатия : С потерями
Размер потока : 271 Мбайт (7%)
Default : Да
Forced : Нет

pb.wtf



Скачать Люди приходят и уходят через торрент https://a.radikal.ru/a32/1905/a9/26450fdda4e2.jpg Скачать фильм Люди приходят и уходят через торрент бесплантно в хорошем качестве Описание: Молодого архитектора Беа увольняют с работы и вдобавок она узнает, что её жених изменяет ей с известной тележурналисткой. Беа ... 10 10 2
Торрент: Зарегистрирован [2019-05-17 19:49] · скачан: 6 раз
Статус: T временная
Размер: 3.97 GB
Как cкачать? Как скачать Люди приходят и уходят через торрент | qTorrent

% Раздел Тема Автор DL S | L
T Фильмы (мультфильмы) cо спонсором показа (Новинки AVI/MKV) [ 1.37 GB ] Люди приходят и уходят / Gente que viene y bah [2019 WEB-DLRip] MVO ["Синема УС"] bober100 Скачать
1 | 0

28-11-2019 20:33  

Отключить всю рекламу на сайте

    Дорогой пользователь! Огромная просьба, поблагодарите релизера, оцените раздачу и оставьте свои комментарий, если Вы скачали Люди приходят и уходят через торрент бесплатно! Внесите свою лепту в развитие PiratBit!
    Комментировать посты могут только пользователи прошедшие не сложную регистрацию
    Показать сообщения:    

    Люди приходят и уходят через торрент
    Скачать бесплатно Люди приходят и уходят
    Люди приходят и уходят скачать торрент
    Люди приходят и уходят смотреть онлайн
    Cкачать фильм Люди приходят и уходят бесплатно
    Люди приходят и уходят скачать торрент в хорошем качестве
    Люди приходят и уходят смотреть онлайн бесплатно в хорошем качестве


    Вы не можете начинать темы
    Вы не можете отвечать на сообщения
    Вы не можете редактировать свои сообщения
    Вы не можете удалять свои сообщения
    Вы не можете голосовать в опросах
    Вы не можете прикреплять файлы к сообщениям
    Вы можете скачивать файлы