Ссылка на приватное зеркало всего за 1$. Внимание количество ограничено!!!

OK

1+1

iTunes

мы

OK

1

WEB-DLRip

Джокер

Пифагор

Ведьмак / The Witcher сериал

iTunes

ПШазам

ОК

Оно 2

iTunes

30
pack

Вам бонус

ВАЖНО

!!Акция!!

Alien_RageХит недели

RePack

Resident Evil 21

ИГРА 18+

pack

RePack

jed

RePack

fifa19

RePack

Assassins Creed: Odyssey

RePack

NEED FOR SPEED™ PAYBACK

4 сезон

9 сезон

Бесстыжие 9 сезон

Все сериалы

все сериалы на PB.wtf

RePack

FAR CRY 5
  

Убойные соседи / Slaughter Drive (Бен Дителс) [2017, Ужасы, WEB-DL 720p] MVO ["Синема УС"] pb.wtf

Убойные соседи через торрент pb.wtf

Размер: 4.05 GB | Добавлен: 8 мес. назад | Торрент скачан:11 раз
Скачать  

17-05-2019 20:32 Убойные соседи Скачать торрент  

Убойные соседи / Slaughter DriveГод выпуска: 2017
Страна: США
Жанр: Ужасы
Продолжительность: 01:32:45
Перевод: Любительский (многоголосый) | "Синема УС"
Субтитры: отсутствуют

Режиссер: Бен Дителс

rating

В ролях: Бен Дителс, Сет Гонткович, Никки Хауэлл, Блейк О'Доннелл, Райан Линтнер, Эрик Мартинес

Описание: Когда режиссер неудачник Даг Стивенсон оставляет свою видеокамеру в местном парке на ночь, он случайно записывает что-то ужасное. С помощью своих неуклюжих друзей-учителей Даг отправляется в дикую поездку, чтобы спасти себя, своих друзей, свою бывшую жену и весь район!

Качество: WEB-DL 720p
Формат: MKV

Видео: h.264, 5197 Кбит/с, 1280x720
Аудио#1: Русский, (AC3, 2 ch, 384 Кбит/с)
скриншот  скриншот  скриншот  

Общее
Уникальный идентификатор : 225796940969725958369335924794570992552 (0xA9DEE8B3FE01BFBCBF30510BA28A6BA8)
Полное имя : D:\Slaughter.Drive.2O17.P.WEB-DL.72Op.mkv
Формат : Matroska
Версия формата : Version 2
Размер файла : 4,05 Гбайт
Продолжительность : 1 ч. 43 м.
Режим общего битрейта : Переменный
Общий поток : 5583 Кбит/сек
Дата кодирования : UTC 2019-05-17 15:13:55
Программа кодирования : mkvmerge v8.3.0 ('Over the Horizon') 64bit
Библиотека кодирования : libebml v1.3.1 + libmatroska v1.4.2

Видео
Идентификатор : 1
Формат : AVC
Формат/Информация : Advanced Video Codec
Профиль формата : High@L4.1
Параметр CABAC формата : Да
Параметр RefFrames формата : 4 кадра
Идентификатор кодека : V_MPEG4/ISO/AVC
Продолжительность : 1 ч. 43 м.
Вид битрейта : Переменный
Битрейт : 5197 Кбит/сек
Максимальный битрейт : 6000 Кбит/сек
Ширина : 1280 пикселей
Высота : 720 пикселей
Соотношение сторон : 16:9
Режим частоты кадров : Постоянный
Частота кадров : 23,976 (24000/1001) кадра/сек
Стандарт вещания : Component
Цветовое пространство : YUV
Субдискретизация насыщенности : 4:2:0
Битовая глубина : 8 бит
Тип развёртки : Прогрессивная
Бит/(Пиксели*Кадры) : 0.230
Размер потока : 3,69 Гбайт (91%)
Default : Да
Forced : Нет
Цветовой диапазон : Limited
Основные цвета : BT.709
Характеристики трансфера : BT.709
Коэффициенты матрицы : BT.709

Аудио
Идентификатор : 2
Формат : AC-3
Формат/Информация : Audio Coding 3
Расширение режима : CM (complete main)
Параметр Endianness формата : Big
Идентификатор кодека : A_AC3
Продолжительность : 1 ч. 43 м.
Вид битрейта : Постоянный
Битрейт : 384 Кбит/сек
Каналы : 2 канала
Расположение каналов : Front: L R
Частота : 48,0 КГц
Частота кадров : 31,250 кадров/сек (1536 spf)
Метод сжатия : С потерями
Размер потока : 285 Мбайт (7%)
Default : Да
Forced : Нет

pb.wtf



Скачать Убойные соседи через торрент https://b.radikal.ru/b24/1905/36/5b194333e6c0.jpg Скачать фильм Убойные соседи через торрент бесплантно в хорошем качестве Описание: Когда режиссер неудачник Даг Стивенсон оставляет свою видеокамеру в местном парке на ночь, он случайно записывает что-то ужасное. ... 10 10 2
Торрент: Зарегистрирован [2019-05-17 20:32] · скачан: 11 раз
Статус: T временная
Размер: 4.05 GB
Как cкачать? Как скачать Убойные соседи через торрент | qTorrent

% Раздел Тема Автор DL S | L
T Фильмы (мультфильмы) cо спонсором показа (Новинки AVI/MKV) [ 1.46 GB ] Убойные соседи / Slaughter Drive [2017 WEB-DLRip] MVO ["Синема УС"] bober100 Скачать
1 | 0

28-11-2019 20:33  

Отключить всю рекламу на сайте

    Дорогой пользователь! Огромная просьба, поблагодарите релизера, оцените раздачу и оставьте свои комментарий, если Вы скачали Убойные соседи через торрент бесплатно! Внесите свою лепту в развитие PiratBit!
    Комментировать посты могут только пользователи прошедшие не сложную регистрацию
    Показать сообщения:    

    Убойные соседи через торрент
    Скачать бесплатно Убойные соседи
    Убойные соседи скачать торрент
    Убойные соседи смотреть онлайн
    Cкачать фильм Убойные соседи бесплатно
    Убойные соседи скачать торрент в хорошем качестве
    Убойные соседи смотреть онлайн бесплатно в хорошем качестве


    Вы не можете начинать темы
    Вы не можете отвечать на сообщения
    Вы не можете редактировать свои сообщения
    Вы не можете удалять свои сообщения
    Вы не можете голосовать в опросах
    Вы не можете прикреплять файлы к сообщениям
    Вы можете скачивать файлы