Ссылка на приватное зеркало всего за 1$. Внимание количество ограничено!!!

OK

1+1

iTunes

мы

OK

1

WEB-DLRip

Джокер

Пифагор

Ведьмак / The Witcher сериал

iTunes

ПШазам

ОК

Оно 2

iTunes

30
pack

Вам бонус

ВАЖНО

!!Акция!!

Alien_RageХит недели

RePack

Resident Evil 21

ИГРА 18+

pack

RePack

jed

RePack

fifa19

RePack

Assassins Creed: Odyssey

RePack

NEED FOR SPEED™ PAYBACK

4 сезон

9 сезон

Бесстыжие 9 сезон

Все сериалы

все сериалы на PB.wtf

RePack

FAR CRY 5
  

Идея зрелости / The Idea of Manhood (Серж Кушнье) [2018, драма, WEB-DL 720p] MVO ["Синема УС"] pb.wtf

Идея зрелости через торрент pb.wtf

Размер: 2.86 GB | Добавлен: 8 мес. назад | Торрент скачан:18 раз
Скачать  

17-05-2019 21:26 Идея зрелости Скачать торрент  

Идея зрелости / The Idea of ManhoodГод выпуска: 2018
Страна: США
Жанр: драма
Продолжительность: 01:13:52
Перевод: Любительский (многоголосый) | "Синема УС"
Субтитры: отсутствуют

Режиссер: Серж Кушнье

rating

В ролях: Карл Бари, Джереми Кушнье, Элизабет Масуччи, Мэг МакКроссен, Мелани Меркоски, Томас Э. Салливан

Описание: Два старых друга неожиданно проводят один день вместе и заканчивают его обсуждением недостатков друг друга. Разговор и день приходят туда, куда ни один из них не ожидал.

Качество: WEB-DL 720p
Формат: MKV

Видео: h.264,5 149 Кбит/с, 1280x688
Аудио#1: Русский, (AC3, 2 ch, 384 Кбит/с)
скриншот  скриншот  скриншот  

Общее
Уникальный идентификатор : 215442634926475187360785453665271028710 (0xA214BE002E480F58960E6F2EE0821BE6)
Полное имя : D:\the.idea.of.manhood.2018.P.WEB-DL.72Op.mkv
Формат : Matroska
Версия формата : Version 2
Размер файла : 2,86 Гбайт
Продолжительность : 1 ч. 13 м.
Режим общего битрейта : Переменный
Общий поток : 5535 Кбит/сек
Дата кодирования : UTC 2019-05-17 10:49:07
Программа кодирования : mkvmerge v8.3.0 ('Over the Horizon') 64bit
Библиотека кодирования : libebml v1.3.1 + libmatroska v1.4.2

Видео
Идентификатор : 1
Формат : AVC
Формат/Информация : Advanced Video Codec
Профиль формата : High@L4.1
Параметр CABAC формата : Да
Параметр RefFrames формата : 4 кадра
Идентификатор кодека : V_MPEG4/ISO/AVC
Продолжительность : 1 ч. 13 м.
Вид битрейта : Переменный
Битрейт : 5149 Кбит/сек
Максимальный битрейт : 6000 Кбит/сек
Ширина : 1280 пикселей
Высота : 688 пикселей
Соотношение сторон : 1,85:1
Режим частоты кадров : Постоянный
Частота кадров : 23,976 (24000/1001) кадра/сек
Стандарт вещания : Component
Цветовое пространство : YUV
Субдискретизация насыщенности : 4:2:0
Битовая глубина : 8 бит
Тип развёртки : Прогрессивная
Бит/(Пиксели*Кадры) : 0.239
Размер потока : 2,60 Гбайт (91%)
Default : Да
Forced : Нет
Цветовой диапазон : Limited
Основные цвета : BT.709
Характеристики трансфера : BT.709
Коэффициенты матрицы : BT.709

Аудио
Идентификатор : 2
Формат : AC-3
Формат/Информация : Audio Coding 3
Расширение режима : CM (complete main)
Параметр Endianness формата : Big
Идентификатор кодека : A_AC3
Продолжительность : 1 ч. 13 м.
Вид битрейта : Постоянный
Битрейт : 384 Кбит/сек
Каналы : 2 канала
Расположение каналов : Front: L R
Частота : 48,0 КГц
Частота кадров : 31,250 кадров/сек (1536 spf)
Метод сжатия : С потерями
Размер потока : 203 Мбайт (7%)
Default : Да
Forced : Нет

pb.wtf



Скачать Идея зрелости через торрент https://c.radikal.ru/c43/1905/69/864729f34cfa.jpg Скачать фильм Идея зрелости через торрент бесплантно в хорошем качестве Описание: Два старых друга неожиданно проводят один день вместе и заканчивают его обсуждением недостатков друг друга. Разговор и день ... 10 10 2
Торрент: Зарегистрирован [2019-05-17 21:26] · скачан: 18 раз
Статус: T временная
Размер: 2.86 GB
Как cкачать? Как скачать Идея зрелости через торрент | qTorrent

% Раздел Тема Автор DL S | L
T Фильмы (мультфильмы) cо спонсором показа (Новинки AVI/MKV) [ 1.36 GB ] Идея зрелости / The Idea of Manhood [2018 WEB-DLRip] MVO ["Синема УС"] bober100 Скачать
1 | 0

28-11-2019 20:33  

Отключить всю рекламу на сайте

    Дорогой пользователь! Огромная просьба, поблагодарите релизера, оцените раздачу и оставьте свои комментарий, если Вы скачали Идея зрелости через торрент бесплатно! Внесите свою лепту в развитие PiratBit!
    Комментировать посты могут только пользователи прошедшие не сложную регистрацию
    Показать сообщения:    

    Идея зрелости через торрент
    Скачать бесплатно Идея зрелости
    Идея зрелости скачать торрент
    Идея зрелости смотреть онлайн
    Cкачать фильм Идея зрелости бесплатно
    Идея зрелости скачать торрент в хорошем качестве
    Идея зрелости смотреть онлайн бесплатно в хорошем качестве


    Вы не можете начинать темы
    Вы не можете отвечать на сообщения
    Вы не можете редактировать свои сообщения
    Вы не можете удалять свои сообщения
    Вы не можете голосовать в опросах
    Вы не можете прикреплять файлы к сообщениям
    Вы можете скачивать файлы