Ссылка на приватное зеркало нашего сайта всего за 1$. Внимание количество ограничено!!!

2 сезон

iTunes

1 сезон

1

2 сезон

2 сезон

iTunes

1 сезон

RePack

30

Ultimate

ВАЖНО

ИГРА 18+

pack

RePack

MK11
pack

Забери бонус

RePack

jed

!!Акция!!

Alien_Rage

RePack

fifa19

RePack

Assassins Creed: Odyssey

RePack

NEED FOR SPEED™ PAYBACK

4 сезон

9 сезон

Бесстыжие 9 сезон

Все сериалы

все сериалы на PB.wtf

RePack

FAR CRY 5
  

Джентльмен Джек / Gentleman Jack / Сезон: 1 / Серии: 1-8 из 8 (Сара Хардинг, Дженнифер Перротт, Салли Уэйнрайт) [2019, драма, WEB-DL 1080p] MVO [TVShows] pb.wtf

Джентльмен Джек через торрент pb.wtf

Размер: 31.36 GB | Добавлен: 1 год 5 мес. назад | Торрент скачан:9 раз
Скачать  

17-05-2019 22:17 Джентльмен Джек Скачать торрент  

Джентльмен Джек / Gentleman Jack Год выпуска: 2019
Страна: Великобритания США
Жанр: драма
Продолжительность: ~01:00:00 серия
Перевод: Профессиональный (многоголосый) | TVShows
Субтитры: английские

Режиссер: Сара Хардинг, Дженнифер Перротт, Салли Уэйнрайт

rating


В ролях:

Сюранна Джоунс, Джо Армстронг, Джессика Бэглоу, Амелия Баллмор, Рози Кавальеро, Стефани Коул, Питер Дэвисон, Шон Дули

Описание:

Сюжет повествует об английской аристократке Энн Листер (1791 — 1840). Её считают «первой открытой лесбиянкой». Заядлая путешественница и альпинистка, мисс Листер сама управляла огромным поместьем, вела откровенный дневник и начисто отметала «подобающую леди» модель поведения, за что её называли «джентльменом Джеком»…

Качество: WEB-DL 1080p
Формат: MKV

Видео: 1920x1080 (16:9), 23.976 fps, MPEG-4 AVC ~8 080 kbps avg
Аудио#1: 48.0 kHz, AC3 Dolby Digital, 3/2 (L,C,R,l,r) + LFE ch, ~384 kbps | RUS / MVO
Аудио#2: 48.0 kHz, Enhanced Audio Coding 3, 3/2 (L,C,R,l,r) + LFE ch, ~640 kbps | ENG
скриншот  скриншот  скриншот  

General
Unique ID : 251628577110092697334885638443052932331 (0xBD4DE6B1E58D3C5616802F5C0FB19CEB)
Complete name : Gentleman.Jack.S01E01.1080p.TVShows.mkv
Format : Matroska
Format version : Version 4 / Version 2
File size : 3.82 GiB
Duration : 1 h 0 min
Overall bit rate : 9 110 kb/s
Encoded date : UTC 2019-05-03 07:58:12
Writing application : mkvmerge v33.1.0 ('Primrose') 64-bit
Writing library : libebml v1.3.7 + libmatroska v1.5.0

Video
ID : 1
Format : AVC
Format/Info : Advanced Video Codec
Format profile : High@L4
Format settings : CABAC / 4 Ref Frames
Format settings, CABAC : Yes
Format settings, ReFrames : 4 frames
Codec ID : V_MPEG4/ISO/AVC
Duration : 1 h 0 min
Bit rate mode : Constant
Bit rate : 8 083 kb/s
Nominal bit rate : 10 000 kb/s
Width : 1 920 pixels
Height : 1 080 pixels
Display aspect ratio : 16:9
Frame rate mode : Constant
Frame rate : 23.976 (24000/1001) FPS
Color space : YUV
Chroma subsampling : 4:2:0
Bit depth : 8 bits
Scan type : Progressive
Bits/(Pixel*Frame) : 0.163
Stream size : 3.39 GiB (89%)
Default : Yes
Forced : No
Color range : Limited
Color primaries : BT.709
Transfer characteristics : BT.709
Matrix coefficients : BT.709

Audio #1
ID : 2
Format : AC-3
Format/Info : Audio Coding 3
Codec ID : A_AC3
Duration : 1 h 0 min
Bit rate mode : Constant
Bit rate : 384 kb/s
Channel(s) : 6 channels
Channel positions : Front: L C R, Side: L R, LFE
Sampling rate : 48.0 kHz
Frame rate : 31.250 FPS (1536 SPF)
Bit depth : 16 bits
Compression mode : Lossy
Stream size : 165 MiB (4%)
Title : TVShows
Language : Russian
Service kind : Complete Main
Default : Yes
Forced : Yes

Audio #2
ID : 3
Format : E-AC-3
Format/Info : Enhanced Audio Coding 3
Codec ID : A_EAC3
Duration : 1 h 0 min
Bit rate mode : Constant
Bit rate : 640 kb/s
Channel(s) : 6 channels
Channel positions : Front: L C R, Side: L R, LFE
Sampling rate : 48.0 kHz
Frame rate : 187.500 FPS (256 SPF)
Compression mode : Lossy
Delay relative to video : 14 ms
Stream size : 275 MiB (7%)
Title : Original
Language : English
Service kind : Complete Main
Default : No
Forced : No

Text
ID : 4
Format : UTF-8
Codec ID : S_TEXT/UTF8
Codec ID/Info : UTF-8 Plain Text
Duration : 59 min 51 s
Bit rate : 76 b/s
Count of elements : 1169
Stream size : 33.5 KiB (0%)
Title : English
Language : English
Default : No
Forced : No

Раздача ведётся путём добавления новых серий; при каждом добавлении создаётся новый торрент.
Чтобы начать докачку новой серии, пользователям необходимо сделать следующее:
1. остановить скачивание,
2. удалить старый торрент у себя из клиента (старые серии удалять не надо),
3. скачать новый торрент и запустить его у себя в клиенте вместо старого, при этом указать клиенту путь в старую папку, куда и должно происходить скачивание новых серий.
pb.wtf



Скачать Джентльмен Джек через торрент http://d.radikal.ru/d01/1905/21/22fcb0a7dd13.jpg Скачать фильм Джентльмен Джек через торрент бесплантно в хорошем качестве Описание: Сюжет повествует об английской аристократке Энн Листер (1791 — 1840). Её считают «первой открытой лесбиянкой». Заядлая ... 10 10 2
Торрент: Зарегистрирован [2019-06-14 09:23] · скачан: 9 раз
Статус: √ проверено
Размер: 31.36 GB
Как cкачать? Как скачать Джентльмен Джек через торрент | qTorrent

% Раздел Тема Автор DL S | L
Зарубежные сериалы [ 14.98 GB ] Джентльмен Джек / Gentleman Jack / Сезон: 1 / Серии: 1-8 из 8 [2019 WEB-DL 720p] MVO [TVShows] bober100 Скачать
2 | 0

28-11-2019 20:33  

Отключить всю рекламу на сайте

    Дорогой пользователь! Огромная просьба, поблагодарите релизера, оцените раздачу и оставьте свои комментарий, если Вы скачали Джентльмен Джек через торрент бесплатно! Внесите свою лепту в развитие PiratBit!
    Комментировать посты могут только пользователи прошедшие не сложную регистрацию
    Показать сообщения:    

    Джентльмен Джек через торрент
    Скачать бесплатно Джентльмен Джек
    Джентльмен Джек скачать торрент
    Джентльмен Джек смотреть онлайн
    Cкачать фильм Джентльмен Джек бесплатно
    Джентльмен Джек скачать торрент в хорошем качестве
    Джентльмен Джек смотреть онлайн бесплатно в хорошем качестве


    Вы не можете начинать темы
    Вы не можете отвечать на сообщения
    Вы не можете редактировать свои сообщения
    Вы не можете удалять свои сообщения
    Вы не можете голосовать в опросах
    Вы не можете прикреплять файлы к сообщениям
    Вы можете скачивать файлы