Ссылка на приватное зеркало всего за 1$. Внимание количество ограничено!!!

OK

1+1

iTunes

мы

OK

1

WEB-DLRip

Джокер

Пифагор

Ведьмак / The Witcher сериал

Лицензия

ПШазам

ОК

Оно 2

iTunes

30
pack

Вам бонус

ВАЖНО

!!Акция!!

Alien_RageХит недели

RePack

Resident Evil 21

ИГРА 18+

pack

RePack

jed

!!Акция!!

Alien_Rage

RePack

fifa19

RePack

Assassins Creed: Odyssey

RePack

NEED FOR SPEED™ PAYBACK

4 сезон

9 сезон

Бесстыжие 9 сезон

Все сериалы

все сериалы на PB.wtf

RePack

FAR CRY 5
  

Стриптизёр психопат / Psycho Stripper / Stripped (Джейк Хелгрен) [2019, Триллер, HDTVRip 720p] MVO ["Синема УС"] pb.wtf

Стриптизёр психопат через торрент pb.wtf

Размер: 2.89 GB | Добавлен: 8 мес. назад | Торрент скачан:19 раз
Скачать  

18-05-2019 00:57 Стриптизёр психопат Скачать торрент  

Стриптизёр психопат / Psycho Stripper / Stripped Год выпуска: 2019
Страна: США
Жанр: Триллер
Продолжительность: 01:25:12
Перевод: Любительский (многоголосый) | "Синема УС"
Субтитры: отсутствуют

Режиссер: Джейк Хелгрен

rating

В ролях: Карисса Стэйплс, Тайлер Джонсон, Марк Гапка, Рэйчел Брук Смит, Лиза Энн Уолтер, Кристал Джой Браун, Джесси Коув, Отем Федеричи, Макс Эмерсон

Описание: За неделю до свадьбы прекрасную преподавательницу балета начинает преследовать стриптизёр, который приходил к ней на девичник.

Качество: HDTVRip 720p
Формат: MKV

Видео: h.264, 4473 Кбит/с, 1280x720
Аудио#1: Русский, (AC3, 2 ch, 384 Кбит/с)
скриншот  скриншот  скриншот  

Общее
Уникальный идентификатор : 232502465942300515443842633105503363186 (0xAEEA589BFD61985EADEB397A736F2072)
Полное имя : D:\PsychoStripper.2O19.P.HDTV.72Op.mkv
Формат : Matroska
Версия формата : Version 2
Размер файла : 2,89 Гбайт
Продолжительность : 1 ч. 25 м.
Режим общего битрейта : Переменный
Общий поток : 4858 Кбит/сек
Дата кодирования : UTC 2019-05-17 15:27:29
Программа кодирования : mkvmerge v8.3.0 ('Over the Horizon') 64bit
Библиотека кодирования : libebml v1.3.1 + libmatroska v1.4.2

Видео
Идентификатор : 1
Формат : AVC
Формат/Информация : Advanced Video Codec
Профиль формата : High@L4.1
Параметр CABAC формата : Да
Параметр RefFrames формата : 4 кадра
Идентификатор кодека : V_MPEG4/ISO/AVC
Продолжительность : 1 ч. 25 м.
Вид битрейта : Переменный
Битрейт : 4473 Кбит/сек
Максимальный битрейт : 5000 Кбит/сек
Ширина : 1280 пикселей
Высота : 720 пикселей
Соотношение сторон : 16:9
Режим частоты кадров : Постоянный
Частота кадров : 23,976 (24000/1001) кадра/сек
Стандарт вещания : Component
Цветовое пространство : YUV
Субдискретизация насыщенности : 4:2:0
Битовая глубина : 8 бит
Тип развёртки : Прогрессивная
Бит/(Пиксели*Кадры) : 0.198
Размер потока : 2,61 Гбайт (90%)
Default : Да
Forced : Нет
Цветовой диапазон : Limited
Основные цвета : BT.709
Характеристики трансфера : BT.709
Коэффициенты матрицы : BT.709

Аудио
Идентификатор : 2
Формат : AC-3
Формат/Информация : Audio Coding 3
Расширение режима : CM (complete main)
Параметр Endianness формата : Big
Идентификатор кодека : A_AC3
Продолжительность : 1 ч. 25 м.
Вид битрейта : Постоянный
Битрейт : 384 Кбит/сек
Каналы : 2 канала
Расположение каналов : Front: L R
Частота : 48,0 КГц
Частота кадров : 31,250 кадров/сек (1536 spf)
Метод сжатия : С потерями
Размер потока : 234 Мбайт (8%)
Default : Да
Forced : Нет

pb.wtf



Скачать Стриптизёр психопат через торрент https://b.radikal.ru/b20/1905/8a/98288d665bef.jpg Скачать фильм Стриптизёр психопат через торрент бесплантно в хорошем качестве Описание: За неделю до свадьбы прекрасную преподавательницу балета начинает преследовать стриптизёр, который приходил к ней на ... 7.3 10 3
Торрент: Зарегистрирован [2019-05-18 00:57] · скачан: 19 раз
Статус: T временная
Размер: 2.89 GB
Как cкачать? Как скачать Стриптизёр психопат через торрент | qTorrent

% Раздел Тема Автор DL S | L
T Фильмы (мультфильмы) cо спонсором показа (Новинки AVI/MKV) [ 1.37 GB ] Стриптизёр психопат / Psycho Stripper / Stripped [2019 HDTVRip] MVO ["Синема УС"] bober100 Скачать
1 | 0

28-11-2019 20:33  

Отключить всю рекламу на сайте

    Дорогой пользователь! Огромная просьба, поблагодарите релизера, оцените раздачу и оставьте свои комментарий, если Вы скачали Стриптизёр психопат через торрент бесплатно! Внесите свою лепту в развитие PiratBit!
    Комментировать посты могут только пользователи прошедшие не сложную регистрацию
    Показать сообщения:    

    Стриптизёр психопат через торрент
    Скачать бесплатно Стриптизёр психопат
    Стриптизёр психопат скачать торрент
    Стриптизёр психопат смотреть онлайн
    Cкачать фильм Стриптизёр психопат бесплатно
    Стриптизёр психопат скачать торрент в хорошем качестве
    Стриптизёр психопат смотреть онлайн бесплатно в хорошем качестве


    Вы не можете начинать темы
    Вы не можете отвечать на сообщения
    Вы не можете редактировать свои сообщения
    Вы не можете удалять свои сообщения
    Вы не можете голосовать в опросах
    Вы не можете прикреплять файлы к сообщениям
    Вы можете скачивать файлы