новый адрес
Ссылка на приватное зеркало всего за 1$. Внимание количество ограничено!!!

iTunes

1+1

iTunes

мы

WEB-DL

1

iTunes

Чернобыль

iTunes

Ральф против интернета

Лицензия

ПШазам

Лицензия

Оно 2

Лицензия

30
pack

Вам бонус

ВАЖНО

!!Акция!!

Alien_RageХит недели

RePack

Resident Evil 21

ИГРА 18+

pack

RePack

jed

!!Акция!!

Alien_Rage

RePack

fifa19

RePack

Assassins Creed: Odyssey

RePack

NEED FOR SPEED™ PAYBACK

3 сезон

9 сезон

Бесстыжие 9 сезон

Все сериалы

все сериалы на PB.wtf

RePack

FAR CRY 5
Ребята, катастрофически не хватает 1900р. для оплаты серверов за Октябрь (всвязи с блокировками трафик упал в 3 раза), 1-2р., выручайте.
  

Гибрид / Crossbreed (Брэндон Слэгли) [2019, фантастика, боевик, триллер, WEB-DLRip] MVO [HDRezka Studio] pb.wtf

Гибрид через торрент pb.wtf

Раздают: 1 [ 0 KB/s ]
Размер: 746 MB | Добавлен: 6 мес. назад | Торрент скачан:411 раз
Скачать  

18-05-2019 01:33 Гибрид Скачать торрент  

Гибрид / Crossbreed Год выпуска: 2019
Страна: США
Жанр: фантастика, боевик, триллер
Продолжительность: 01:25:39
Перевод: Профессиональный (многоголосый) | HDRezka Studio
Субтитры: отсутствуют

Режиссер: Брэндон Слэгли

rating

В ролях:

Вивика А. Фокс, Дэниэл Болдуин, Билл Фишер, Антуан Ланье, Вернон Уэллс, Джон Т. Вудс, Джейсон МаНил, Му-Шака Бенсон, Брэндон Уильямс, Деванни Пинн

Описание:

В недалёком будущем президент Новых Соединённых Штатов нанимает команду солдат - ветеранов, чтобы те выкрали инопланетное биологическое оружие из сверхсекретной лаборатории на орбите Земли.

Качество: WEB-DLRip
Формат: AVI

Видео: 720x304 (2.37:1), 23.976 fps, XviD build 73 ~1080 kbps avg, 0.21 bit/pixel
Аудио: 48 kHz, MPEG Layer 3, 2 ch, ~128.00 kbps avg
скриншот  скриншот  скриншот  скриншот  

General
Complete name : Crossbreed.2019.WEB-DLRip.Portablius.avi
Format : AVI
Format/Info : Audio Video Interleave
File size : 746 MiB
Duration : 1 h 25 min
Overall bit rate : 1 218 kb/s
Writing library : VirtualDub build 35491/release

Video
ID : 0
Format : MPEG-4 Visual
Format profile : Advanced Simple@L5
Format settings : BVOP1 / Custom Matrix
Format settings, BVOP : 1
Format settings, QPel : No
Format settings, GMC : No warppoints
Format settings, Matrix : Custom
Codec ID : XVID
Codec ID/Hint : XviD
Duration : 1 h 25 min
Bit rate : 1 080 kb/s
Width : 720 pixels
Height : 304 pixels
Display aspect ratio : 2.35:1
Frame rate : 23.976 (24000/1001) FPS
Color space : YUV
Chroma subsampling : 4:2:0
Bit depth : 8 bits
Scan type : Progressive
Compression mode : Lossy
Bits/(Pixel*Frame) : 0.206
Stream size : 662 MiB (89%)
Writing library : XviD 73

Audio
ID : 1
Format : MPEG Audio
Format version : Version 1
Format profile : Layer 3
Codec ID : 55
Codec ID/Hint : MP3
Duration : 1 h 25 min
Bit rate mode : Constant
Bit rate : 128 kb/s
Channel(s) : 2 channels
Sampling rate : 48.0 kHz
Frame rate : 41.667 FPS (1152 SPF)
Compression mode : Lossy
Stream size : 78.4 MiB (11%)
Alignment : Split across interleaves
Interleave, duration : 42 ms (1.00 video frame)
Interleave, preload duratio : 500 ms
Writing library : LAME3.99r
Encoding settings : -m s -V 4 -q 2 -lowpass 17 -b 128

pb.wtf



Скачать Гибрид через торрент https://b.radikal.ru/b26/1902/2b/24e51bae2bf2.jpg Скачать фильм Гибрид через торрент бесплантно в хорошем качестве Описание: В недалёком будущем президент Новых Соединённых Штатов нанимает команду солдат - ветеранов, чтобы те выкрали инопланетное ... 9.7 10 10
Торрент: Зарегистрирован [2019-05-18 01:33] · скачан: 411 раз
Статус: T временная
Размер: 746 MB
Как cкачать? Как скачать Гибрид через торрент | qTorrent

% Раздел Тема Автор DL S | L
T Фильмы (WEB-DL 720p, 1080p) [ 4.97 GB ] Гибрид / Crossbreed [2019 WEB-DL 1080p] MVO [HDRezka Studio] - ExKinoRay Enigma2010 Скачать
10 | 0

28-11-2019 20:33  

Отключить всю рекламу на сайте

    Дорогой пользователь! Огромная просьба, поблагодарите релизера, оцените раздачу и оставьте свои комментарий, если Вы скачали Гибрид через торрент бесплатно! Внесите свою лепту в развитие PiratBit!
    Комментировать посты могут только пользователи прошедшие не сложную регистрацию
    Показать сообщения:    

    Гибрид через торрент
    Скачать бесплатно Гибрид
    Гибрид скачать торрент
    Гибрид смотреть онлайн
    Cкачать фильм Гибрид бесплатно
    Гибрид скачать торрент в хорошем качестве
    Гибрид смотреть онлайн бесплатно в хорошем качестве


    Вы не можете начинать темы
    Вы не можете отвечать на сообщения
    Вы не можете редактировать свои сообщения
    Вы не можете удалять свои сообщения
    Вы не можете голосовать в опросах
    Вы не можете прикреплять файлы к сообщениям
    Вы можете скачивать файлы